  0
SECTION
  2
HEADER
  9
$ACADVER
  1
AC1015
  9
$ACADMAINTVER
 70
     6
  9
$DWGCODEPAGE
  3
ANSI_1252
  9
$INSBASE
 10
0.0
 20
0.0
 30
0.0
  9
$EXTMIN
 10
9.99999999999998
 20
9.99999999999995
 30
0.0
  9
$EXTMAX
 10
287.0
 20
210.0
 30
0.0
  9
$LIMMIN
 10
0.0
 20
0.0
  9
$LIMMAX
 10
12.0
 20
9.0
  9
$ORTHOMODE
 70
     0
  9
$REGENMODE
 70
     1
  9
$FILLMODE
 70
     1
  9
$QTEXTMODE
 70
     0
  9
$MIRRTEXT
 70
     1
  9
$LTSCALE
 40
1.0
  9
$ATTMODE
 70
     1
  9
$TEXTSIZE
 40
0.2
  9
$TRACEWID
 40
0.05
  9
$TEXTSTYLE
  7
Standard
  9
$CLAYER
  8
0
  9
$CELTYPE
  6
ByLayer
  9
$CECOLOR
 62
   256
  9
$CELTSCALE
 40
1.0
  9
$DISPSILH
 70
     0
  9
$DIMSCALE
 40
1.0
  9
$DIMASZ
 40
0.18
  9
$DIMEXO
 40
0.0625
  9
$DIMDLI
 40
0.38
  9
$DIMRND
 40
0.0
  9
$DIMDLE
 40
0.0
  9
$DIMEXE
 40
0.18
  9
$DIMTP
 40
0.0
  9
$DIMTM
 40
0.0
  9
$DIMTXT
 40
0.18
  9
$DIMCEN
 40
0.09
  9
$DIMTSZ
 40
0.0
  9
$DIMTOL
 70
     0
  9
$DIMLIM
 70
     0
  9
$DIMTIH
 70
     1
  9
$DIMTOH
 70
     1
  9
$DIMSE1
 70
     0
  9
$DIMSE2
 70
     0
  9
$DIMTAD
 70
     0
  9
$DIMZIN
 70
     0
  9
$DIMBLK
  1

  9
$DIMASO
 70
     1
  9
$DIMSHO
 70
     1
  9
$DIMPOST
  1

  9
$DIMAPOST
  1

  9
$DIMALT
 70
     0
  9
$DIMALTD
 70
     2
  9
$DIMALTF
 40
25.4
  9
$DIMLFAC
 40
1.0
  9
$DIMTOFL
 70
     0
  9
$DIMTVP
 40
0.0
  9
$DIMTIX
 70
     0
  9
$DIMSOXD
 70
     0
  9
$DIMSAH
 70
     0
  9
$DIMBLK1
  1

  9
$DIMBLK2
  1

  9
$DIMSTYLE
  2
Standard
  9
$DIMCLRD
 70
     0
  9
$DIMCLRE
 70
     0
  9
$DIMCLRT
 70
     0
  9
$DIMTFAC
 40
1.0
  9
$DIMGAP
 40
0.09
  9
$DIMJUST
 70
     0
  9
$DIMSD1
 70
     0
  9
$DIMSD2
 70
     0
  9
$DIMTOLJ
 70
     1
  9
$DIMTZIN
 70
     0
  9
$DIMALTZ
 70
     0
  9
$DIMALTTZ
 70
     0
  9
$DIMUPT
 70
     0
  9
$DIMDEC
 70
     4
  9
$DIMTDEC
 70
     4
  9
$DIMALTU
 70
     2
  9
$DIMALTTD
 70
     2
  9
$DIMTXSTY
  7
Standard
  9
$DIMAUNIT
 70
     0
  9
$DIMADEC
 70
     0
  9
$DIMALTRND
 40
0.0
  9
$DIMAZIN
 70
     0
  9
$DIMDSEP
 70
    46
  9
$DIMATFIT
 70
     3
  9
$DIMFRAC
 70
     0
  9
$DIMLDRBLK
  1

  9
$DIMLUNIT
 70
     2
  9
$DIMLWD
 70
    -2
  9
$DIMLWE
 70
    -2
  9
$DIMTMOVE
 70
     0
  9
$LUNITS
 70
     2
  9
$LUPREC
 70
     4
  9
$SKETCHINC
 40
0.1
  9
$FILLETRAD
 40
0.5
  9
$AUNITS
 70
     0
  9
$AUPREC
 70
     0
  9
$MENU
  1
.
  9
$ELEVATION
 40
0.0
  9
$PELEVATION
 40
0.0
  9
$THICKNESS
 40
0.0
  9
$LIMCHECK
 70
     0
  9
$CHAMFERA
 40
0.5
  9
$CHAMFERB
 40
0.5
  9
$CHAMFERC
 40
1.0
  9
$CHAMFERD
 40
0.0
  9
$SKPOLY
 70
     0
  9
$TDCREATE
 40
2456279.672749248
  9
$TDUCREATE
 40
2456279.631082581
  9
$TDUPDATE
 40
2456279.672749259
  9
$TDUUPDATE
 40
2456279.631082593
  9
$TDINDWG
 40
0.0000000116
  9
$TDUSRTIMER
 40
0.0000000116
  9
$USRTIMER
 70
     1
  9
$ANGBASE
 50
0.0
  9
$ANGDIR
 70
     0
  9
$PDMODE
 70
     0
  9
$PDSIZE
 40
0.0
  9
$PLINEWID
 40
0.0
  9
$SPLFRAME
 70
     0
  9
$SPLINETYPE
 70
     6
  9
$SPLINESEGS
 70
     8
  9
$HANDSEED
  5
343
  9
$SURFTAB1
 70
     6
  9
$SURFTAB2
 70
     6
  9
$SURFTYPE
 70
     6
  9
$SURFU
 70
     6
  9
$SURFV
 70
     6
  9
$UCSBASE
  2

  9
$UCSNAME
  2

  9
$UCSORG
 10
0.0
 20
0.0
 30
0.0
  9
$UCSXDIR
 10
1.0
 20
0.0
 30
0.0
  9
$UCSYDIR
 10
0.0
 20
1.0
 30
0.0
  9
$UCSORTHOREF
  2

  9
$UCSORTHOVIEW
 70
     0
  9
$UCSORGTOP
 10
0.0
 20
0.0
 30
0.0
  9
$UCSORGBOTTOM
 10
0.0
 20
0.0
 30
0.0
  9
$UCSORGLEFT
 10
0.0
 20
0.0
 30
0.0
  9
$UCSORGRIGHT
 10
0.0
 20
0.0
 30
0.0
  9
$UCSORGFRONT
 10
0.0
 20
0.0
 30
0.0
  9
$UCSORGBACK
 10
0.0
 20
0.0
 30
0.0
  9
$PUCSBASE
  2

  9
$PUCSNAME
  2

  9
$PUCSORG
 10
0.0
 20
0.0
 30
0.0
  9
$PUCSXDIR
 10
1.0
 20
0.0
 30
0.0
  9
$PUCSYDIR
 10
0.0
 20
1.0
 30
0.0
  9
$PUCSORTHOREF
  2

  9
$PUCSORTHOVIEW
 70
     0
  9
$PUCSORGTOP
 10
0.0
 20
0.0
 30
0.0
  9
$PUCSORGBOTTOM
 10
0.0
 20
0.0
 30
0.0
  9
$PUCSORGLEFT
 10
0.0
 20
0.0
 30
0.0
  9
$PUCSORGRIGHT
 10
0.0
 20
0.0
 30
0.0
  9
$PUCSORGFRONT
 10
0.0
 20
0.0
 30
0.0
  9
$PUCSORGBACK
 10
0.0
 20
0.0
 30
0.0
  9
$USERI1
 70
     0
  9
$USERI2
 70
     0
  9
$USERI3
 70
     0
  9
$USERI4
 70
     0
  9
$USERI5
 70
     0
  9
$USERR1
 40
18.0
  9
$USERR2
 40
0.0
  9
$USERR3
 40
0.0
  9
$USERR4
 40
0.0
  9
$USERR5
 40
0.0
  9
$WORLDVIEW
 70
     1
  9
$SHADEDGE
 70
     3
  9
$SHADEDIF
 70
    70
  9
$TILEMODE
 70
     1
  9
$MAXACTVP
 70
    64
  9
$PINSBASE
 10
0.0
 20
0.0
 30
0.0
  9
$PLIMCHECK
 70
     0
  9
$PEXTMIN
 10
1.00000000000000E+20
 20
1.00000000000000E+20
 30
1.00000000000000E+20
  9
$PEXTMAX
 10
-1.00000000000000E+20
 20
-1.00000000000000E+20
 30
-1.00000000000000E+20
  9
$PLIMMIN
 10
0.0
 20
0.0
  9
$PLIMMAX
 10
12.0
 20
9.0
  9
$UNITMODE
 70
     0
  9
$VISRETAIN
 70
     1
  9
$PLINEGEN
 70
     0
  9
$PSLTSCALE
 70
     1
  9
$TREEDEPTH
 70
  3020
  9
$CMLSTYLE
  2
Standard
  9
$CMLJUST
 70
     0
  9
$CMLSCALE
 40
1.0
  9
$PROXYGRAPHICS
 70
     1
  9
$MEASUREMENT
 70
     1
  9
$CELWEIGHT
370
    -1
  9
$ENDCAPS
280
     0
  9
$JOINSTYLE
280
     0
  9
$LWDISPLAY
290
     0
  9
$INSUNITS
 70
     1
  9
$HYPERLINKBASE
  1

  9
$STYLESHEET
  1

  9
$XEDIT
290
     1
  9
$CEPSNTYPE
380
     0
  9
$PSTYLEMODE
290
     1
  9
$FINGERPRINTGUID
  2
{86ABD93C-AB64-4321-99A9-50E6F04A454B}
  9
$VERSIONGUID
  2
{FAEB1C32-E019-11D5-929B-00C0DF256EC4}
  9
$EXTNAMES
290
     1
  9
$PSVPSCALE
 40
0.0
  9
$OLESTARTUP
290
     0
  0
ENDSEC
  0
SECTION
  2
CLASSES
  0
CLASS
  1
ACDBDICTIONARYWDFLT
  2
AcDbDictionaryWithDefault
  3
ObjectDBX Classes
 90
        0
280
     0
281
     0
  0
CLASS
  1
VISUALSTYLE
  2
AcDbVisualStyle
  3
ObjectDBX Classes
 90
     4095
280
     0
281
     0
  0
CLASS
  1
MATERIAL
  2
AcDbMaterial
  3
ObjectDBX Classes
 90
     1153
280
     0
281
     0
  0
CLASS
  1
SCALE
  2
AcDbScale
  3
ObjectDBX Classes
 90
     1153
280
     0
281
     0
  0
CLASS
  1

  2
exOdDbCircle
  3

 90
        0
280
     0
281
     1
  0
CLASS
  1

  2
exOdDbSpline
  3

 90
        0
280
     0
281
     1
  0
CLASS
  1

  2
exOdDbPolyline
  3

 90
        0
280
     0
281
     1
  0
CLASS
  1
DICTIONARYVAR
  2
AcDbDictionaryVar
  3
ObjectDBX Classes
 90
        0
280
     0
281
     0
  0
CLASS
  1
ACDBPLACEHOLDER
  2
AcDbPlaceHolder
  3
ObjectDBX Classes
 90
        0
280
     0
281
     0
  0
CLASS
  1
LAYOUT
  2
AcDbLayout
  3
ObjectDBX Classes
 90
        0
280
     0
281
     0
  0
ENDSEC
  0
SECTION
  2
TABLES
  0
TABLE
  2
VPORT
  5
8
330
0
100
AcDbSymbolTable
 70
     1
  0
VPORT
  5
29
330
8
100
AcDbSymbolTableRecord
100
AcDbViewportTableRecord
  2
*Active
 70
     0
 10
0.0
 20
0.0
 11
1.0
 21
1.0
 12
148.5
 22
110.0
 13
0.0
 23
0.0
 14
0.5
 24
0.5
 15
0.5
 25
0.5
 16
0.0
 26
0.0
 36
1.0
 17
0.0
 27
0.0
 37
0.0
 40
220.0000000000001
 41
1.60267857142857
 42
50.0
 43
0.0
 44
0.0
 50
0.0
 51
0.0
 71
     0
 72
   100
 73
     1
 74
     3
 75
     0
 76
     0
 77
     0
 78
     0
281
     0
 65
     1
110
0.0
120
0.0
130
0.0
111
1.0
121
0.0
131
0.0
112
0.0
122
1.0
132
0.0
 79
     0
146
0.0
  0
ENDTAB
  0
TABLE
  2
LTYPE
  5
5
330
0
100
AcDbSymbolTable
 70
     8
  0
LTYPE
  5
14
330
5
100
AcDbSymbolTableRecord
100
AcDbLinetypeTableRecord
  2
ByBlock
 70
     0
  3

 72
    65
 73
     0
 40
0.0
  0
LTYPE
  5
15
330
5
100
AcDbSymbolTableRecord
100
AcDbLinetypeTableRecord
  2
ByLayer
 70
     0
  3

 72
    65
 73
     0
 40
0.0
  0
LTYPE
  5
16
330
5
100
AcDbSymbolTableRecord
100
AcDbLinetypeTableRecord
  2
Continuous
 70
     0
  3
Solid line
 72
    65
 73
     0
 40
0.0
  0
LTYPE
  5
3F
330
5
100
AcDbSymbolTableRecord
100
AcDbLinetypeTableRecord
  2
DASHED
 70
     0
  3
Dashed
 72
    65
 73
     2
 40
15.0
 49
7.0
 74
     0
 49
-8.0
 74
     0
  0
LTYPE
  5
40
330
5
100
AcDbSymbolTableRecord
100
AcDbLinetypeTableRecord
  2
DOTTED
 70
     0
  3
Dotted
 72
    65
 73
     2
 40
1.0
 49
0.0
 74
     0
 49
-1.0
 74
     0
  0
LTYPE
  5
41
330
5
100
AcDbSymbolTableRecord
100
AcDbLinetypeTableRecord
  2
DOT_CENTER
 70
     0
  3
Dot_Center
 72
    65
 73
     4
 40
14.0
 49
12.0
 74
     0
 49
-1.0
 74
     0
 49
0.0
 74
     0
 49
-1.0
 74
     0
  0
LTYPE
  5
42
330
5
100
AcDbSymbolTableRecord
100
AcDbLinetypeTableRecord
  2
LONG_DASHED
 70
     0
  3
Long_Dashed
 72
    65
 73
     2
 40
15.0
 49
10.0
 74
     0
 49
-5.0
 74
     0
  0
LTYPE
  5
43
330
5
100
AcDbSymbolTableRecord
100
AcDbLinetypeTableRecord
  2
DASH_CENTER
 70
     0
  3
Dash_Center
 72
    65
 73
     4
 40
14.0
 49
11.0
 74
     0
 49
-1.0
 74
     0
 49
1.0
 74
     0
 49
-1.0
 74
     0
  0
LTYPE
  5
44
330
5
100
AcDbSymbolTableRecord
100
AcDbLinetypeTableRecord
  2
PHANTOM
 70
     0
  3
Phantom
 72
    65
 73
     6
 40
13.0
 49
10.0
 74
     0
 49
-1.0
 74
     0
 49
0.0
 74
     0
 49
-1.0
 74
     0
 49
0.0
 74
     0
 49
-1.0
 74
     0
  0
LTYPE
  5
45
330
5
100
AcDbSymbolTableRecord
100
AcDbLinetypeTableRecord
  2
CENTER_DASH_DASH
 70
     0
  3
Center_Dash_Dash
 72
    65
 73
     6
 40
14.0
 49
9.0
 74
     0
 49
-1.0
 74
     0
 49
1.0
 74
     0
 49
-1.0
 74
     0
 49
1.0
 74
     0
 49
-1.0
 74
     0
  0
ENDTAB
  0
TABLE
  2
LAYER
  5
2
330
0
100
AcDbSymbolTable
 70
     6
  0
LAYER
  5
10
330
2
100
AcDbSymbolTableRecord
100
AcDbLayerTableRecord
  2
0
 70
     0
 62
     7
  6
Continuous
370
    -3
390
F
  0
LAYER
  5
46
330
2
100
AcDbSymbolTableRecord
100
AcDbLayerTableRecord
  2
Bemaßungen_TC_020513_DIN_
 70
     0
 62
     7
  6
Continuous
370
    -3
390
F
  0
LAYER
  5
47
330
2
100
AcDbSymbolTableRecord
100
AcDbLayerTableRecord
  2
Schraffur
 70
     0
 62
     7
  6
Continuous
370
    -3
390
F
  0
LAYER
  5
48
330
2
100
AcDbSymbolTableRecord
100
AcDbLayerTableRecord
  2
Sichtbare_Kanten_TC_020513_DIN_
 70
     0
 62
     7
  6
Continuous
370
    -3
390
F
  0
LAYER
  5
49
330
2
100
AcDbSymbolTableRecord
100
AcDbLayerTableRecord
  2
Skizziergeometrie_ISO_
 70
     0
 62
     7
  6
Continuous
370
    -3
390
F
  0
LAYER
  5
4A
330
2
100
AcDbSymbolTableRecord
100
AcDbLayerTableRecord
  2
Symbole_ISO_
 70
     0
 62
     7
  6
Continuous
370
    -3
390
F
  0
ENDTAB
  0
TABLE
  2
STYLE
  5
3
330
0
100
AcDbSymbolTable
 70
     5
  0
STYLE
  5
11
330
3
100
AcDbSymbolTableRecord
100
AcDbTextStyleTableRecord
  2
Standard
 70
     0
 40
0.0
 41
1.0
 50
0.0
 71
     0
 42
0.2
  3
txt
  4

  0
STYLE
  5
D3
330
3
100
AcDbSymbolTableRecord
100
AcDbTextStyleTableRecord
  2
CONVERTER_11
 70
     0
 40
0.0
 41
0.59999996423721
 50
0.0
 71
     0
 42
0.2
  3
txt.shx
  4

  0
STYLE
  5
D5
330
3
100
AcDbSymbolTableRecord
100
AcDbTextStyleTableRecord
  2
CONVERTER_12
 70
     0
 40
0.0
 41
0.67499998211861
 50
0.0
 71
     0
 42
0.2
  3
txt.shx
  4

  0
STYLE
  5
2DB
330
3
100
AcDbSymbolTableRecord
100
AcDbTextStyleTableRecord
  2
CONVERTER_13
 70
     0
 40
0.0
 41
0.89999994635582
 50
0.0
 71
     0
 42
0.2
  3
txt.shx
  4

  0
STYLE
  5
2E5
330
3
100
AcDbSymbolTableRecord
100
AcDbTextStyleTableRecord
  2
CONVERTER_14
 70
     0
 40
0.0
 41
0.75
 50
0.0
 71
     0
 42
0.2
  3
txt.shx
  4

  0
ENDTAB
  0
TABLE
  2
VIEW
  5
6
330
0
100
AcDbSymbolTable
 70
     0
  0
ENDTAB
  0
TABLE
  2
UCS
  5
7
330
0
100
AcDbSymbolTable
 70
     0
  0
ENDTAB
  0
TABLE
  2
APPID
  5
9
330
0
100
AcDbSymbolTable
 70
     1
  0
APPID
  5
12
330
9
100
AcDbSymbolTableRecord
100
AcDbRegAppTableRecord
  2
ACAD
 70
     0
  0
ENDTAB
  0
TABLE
  2
DIMSTYLE
  5
A
330
0
100
AcDbSymbolTable
 70
     6
100
AcDbDimStyleTable
  0
DIMSTYLE
105
27
330
A
100
AcDbSymbolTableRecord
100
AcDbDimStyleTableRecord
  2
Standard
 70
     0
340
11
  0
DIMSTYLE
105
2E9
102
{ACAD_REACTORS
330
2EA
102
}
330
A
100
AcDbSymbolTableRecord
100
AcDbDimStyleTableRecord
  2
ME10_DIM_10
 70
     0
 41
2.5
 42
1.0
 44
2.0
 73
     0
 74
     0
 77
     1
 78
    12
140
3.5
147
0.8
172
     1
173
     1
174
     1
175
     1
176
     7
177
     7
178
     7
271
     2
340
2E5
  0
DIMSTYLE
105
2F4
102
{ACAD_REACTORS
330
2F5
102
}
330
A
100
AcDbSymbolTableRecord
100
AcDbDimStyleTableRecord
  2
ME10_DIM_11
 70
     0
 41
2.5
 42
1.0
 44
2.0
 73
     0
 74
     0
 77
     1
 78
    12
140
3.5
147
0.8
172
     1
173
     1
174
     1
175
     1
176
     7
177
     7
178
     7
271
     2
340
2E5
  0
DIMSTYLE
105
2FF
102
{ACAD_REACTORS
330
300
102
}
330
A
100
AcDbSymbolTableRecord
100
AcDbDimStyleTableRecord
  2
ME10_DIM_12
 70
     0
 41
2.5
 42
1.0
 44
2.0
 73
     0
 74
     0
 77
     1
 78
    12
140
3.5
147
0.8
172
     1
173
     1
174
     1
175
     1
176
     7
177
     7
178
     7
271
     2
340
2E5
  0
DIMSTYLE
105
30A
102
{ACAD_REACTORS
330
30B
102
}
330
A
100
AcDbSymbolTableRecord
100
AcDbDimStyleTableRecord
  2
ME10_DIM_13
 70
     0
 41
2.5
 42
1.0
 44
2.0
 73
     0
 74
     0
 77
     1
 78
    12
140
3.5
147
0.8
172
     1
173
     1
174
     1
175
     1
176
     7
177
     7
178
     7
271
     2
340
2E5
  0
DIMSTYLE
105
315
102
{ACAD_REACTORS
330
316
102
}
330
A
100
AcDbSymbolTableRecord
100
AcDbDimStyleTableRecord
  2
ME10_DIM_14
 70
     0
 41
2.5
 42
1.0
 44
2.0
 73
     0
 74
     0
 77
     1
 78
    12
140
3.5
147
0.8
172
     1
173
     1
174
     1
175
     1
176
     7
177
     7
178
     7
271
     2
340
2E5
  0
ENDTAB
  0
TABLE
  2
BLOCK_RECORD
  5
1
330
0
100
AcDbSymbolTable
 70
     8
  0
BLOCK_RECORD
  5
1F
330
1
100
AcDbSymbolTableRecord
100
AcDbBlockTableRecord
  2
*Model_Space
340
22
  0
BLOCK_RECORD
  5
1B
330
1
100
AcDbSymbolTableRecord
100
AcDbBlockTableRecord
  2
*Paper_Space
340
1E
  0
BLOCK_RECORD
  5
23
330
1
100
AcDbSymbolTableRecord
100
AcDbBlockTableRecord
  2
*Paper_Space0
340
26
  0
BLOCK_RECORD
  5
4B
330
1
100
AcDbSymbolTableRecord
100
AcDbBlockTableRecord
  2
Schriftfelder_Ilme
340
0
102
{BLKREFS
331
73
102
}
  0
BLOCK_RECORD
  5
4E
330
1
100
AcDbSymbolTableRecord
100
AcDbBlockTableRecord
  2
Ränder_Ilme_Rahmen_A4_quer
340
0
102
{BLKREFS
331
74
102
}
  0
BLOCK_RECORD
  5
2DF
330
1
100
AcDbSymbolTableRecord
100
AcDbBlockTableRecord
  2
*D3
340
0
  0
BLOCK_RECORD
  5
2EB
330
1
100
AcDbSymbolTableRecord
100
AcDbBlockTableRecord
  2
*D4
340
0
  0
BLOCK_RECORD
  5
2F6
330
1
100
AcDbSymbolTableRecord
100
AcDbBlockTableRecord
  2
*D5
340
0
  0
BLOCK_RECORD
  5
301
330
1
100
AcDbSymbolTableRecord
100
AcDbBlockTableRecord
  2
*D6
340
0
  0
BLOCK_RECORD
  5
30C
330
1
100
AcDbSymbolTableRecord
100
AcDbBlockTableRecord
  2
*D7
340
0
  0
ENDTAB
  0
ENDSEC
  0
SECTION
  2
BLOCKS
  0
BLOCK
  5
20
330
1F
100
AcDbEntity
  8
0
100
AcDbBlockBegin
  2
*Model_Space
 70
     0
 10
0.0
 20
0.0
 30
0.0
  3
*Model_Space
  1

  0
ENDBLK
  5
21
330
1F
100
AcDbEntity
  8
0
100
AcDbBlockEnd
  0
BLOCK
  5
1C
330
1B
100
AcDbEntity
 67
     1
  8
0
100
AcDbBlockBegin
  2
*Paper_Space
 70
     0
 10
0.0
 20
0.0
 30
0.0
  3
*Paper_Space
  1

  0
ENDBLK
  5
1D
330
1B
100
AcDbEntity
 67
     1
  8
0
100
AcDbBlockEnd
  0
BLOCK
  5
24
330
23
100
AcDbEntity
  8
0
100
AcDbBlockBegin
  2
*Paper_Space0
 70
     0
 10
0.0
 20
0.0
 30
0.0
  3
*Paper_Space0
  1

  0
ENDBLK
  5
25
330
23
100
AcDbEntity
  8
0
100
AcDbBlockEnd
  0
BLOCK
  5
4C
330
4B
100
AcDbEntity
  8
0
100
AcDbBlockBegin
  2
Schriftfelder_Ilme
 70
     0
 10
0.0
 20
0.0
 30
0.0
  3
Schriftfelder_Ilme
  1

  0
LINE
  5
75
330
4B
100
AcDbEntity
  8
Skizziergeometrie_ISO_
  6
Continuous
 62
     7
100
AcDbLine
 10
19.980189950303
 20
45.0006400926262
 30
0.0
 11
19.980189950303
 21
10.0006400926262
 31
0.0
  0
LINE
  5
76
330
4B
100
AcDbEntity
  8
Skizziergeometrie_ISO_
  6
Continuous
 62
     7
100
AcDbLine
 10
189.655184537377
 20
14.2880685085818
 30
0.0
 11
189.655184537377
 21
19.2535360148728
 31
0.0
  0
LINE
  5
77
330
4B
100
AcDbEntity
  8
Skizziergeometrie_ISO_
  6
Continuous
 62
     7
100
AcDbLine
 10
189.655184537377
 20
19.2535360148728
 30
0.0
 11
188.7995275176
 21
17.7714945827671
 31
0.0
  0
LINE
  5
78
330
4B
100
AcDbEntity
  8
Skizziergeometrie_ISO_
  6
Continuous
 62
     7
100
AcDbLine
 10
188.510852383006
 20
17.7714945827671
 30
0.0
 11
187.655195363229
 21
19.2535360148728
 31
0.0
  0
LINE
  5
79
330
4B
100
AcDbEntity
  8
Skizziergeometrie_ISO_
  6
Continuous
 62
     7
100
AcDbLine
 10
187.655195363229
 20
19.2535360148728
 30
0.0
 11
187.655195363229
 21
15.8473707016896
 31
0.0
  0
LINE
  5
7A
330
4B
100
AcDbEntity
  8
Skizziergeometrie_ISO_
  6
Continuous
 62
     7
100
AcDbLine
 10
180.238754675162
 20
17.6450043569675
 30
0.0
 11
188.655189950303
 21
22.500640092627
 31
0.0
  0
LINE
  5
7B
330
4B
100
AcDbEntity
  8
Skizziergeometrie_ISO_
  6
Continuous
 62
     7
100
AcDbLine
 10
188.655189950303
 20
22.500640092627
 30
0.0
 11
197.071625225444
 21
17.6450043569675
 31
0.0
  0
LINE
  5
7C
330
4B
100
AcDbEntity
  8
Skizziergeometrie_ISO_
  6
Continuous
 62
     7
100
AcDbLine
 10
197.071625225444
 20
17.3562758282849
 30
0.0
 11
188.655189950303
 21
12.5006400926254
 31
0.0
  0
LINE
  5
7D
330
4B
100
AcDbEntity
  8
Skizziergeometrie_ISO_
  6
Continuous
 62
     7
100
AcDbLine
 10
188.655189950303
 20
12.5006400926254
 30
0.0
 11
180.238754675162
 21
17.3562758282849
 31
0.0
  0
LINE
  5
7E
330
4B
100
AcDbEntity
  8
Skizziergeometrie_ISO_
  6
Continuous
 62
     7
100
AcDbLine
 10
186.988528696563
 20
15.8473707016896
 30
0.0
 11
186.988528696562
 21
20.7526980593071
 31
0.0
  0
LINE
  5
7F
330
4B
100
AcDbEntity
  8
Skizziergeometrie_ISO_
  6
Continuous
 62
     7
100
AcDbLine
 10
187.482962380186
 20
20.8851811655447
 30
0.0
 11
188.655189950303
 21
18.8548234560689
 31
0.0
  0
LINE
  5
80
330
4B
100
AcDbEntity
  8
Skizziergeometrie_ISO_
  6
Continuous
 62
     7
100
AcDbLine
 10
190.321851204044
 20
14.2880685085818
 30
0.0
 11
190.321851204044
 21
20.752698059307
 31
0.0
  0
LINE
  5
81
330
4B
100
AcDbEntity
  8
Skizziergeometrie_ISO_
  6
Continuous
 62
     7
100
AcDbLine
 10
189.82741752042
 20
20.8851811655447
 30
0.0
 11
188.655189950303
 21
18.8548234560689
 31
0.0
  0
LINE
  5
82
330
4B
100
AcDbEntity
  8
Skizziergeometrie_ISO_
  6
Continuous
 62
     7
100
AcDbLine
 10
185.655190959106
 20
15.2706619304882
 30
0.0
 11
185.655190959106
 21
19.9439783665993
 31
0.0
  0
LINE
  5
83
330
4B
100
AcDbEntity
  8
Skizziergeometrie_ISO_
  6
Continuous
 62
     7
100
AcDbLine
 10
186.321857625773
 20
19.9439783665993
 30
0.0
 11
186.321857625773
 21
15.270660658657
 31
0.0
  0
LINE
  5
84
330
4B
100
AcDbEntity
  8
Skizziergeometrie_ISO_
  6
Continuous
 62
     7
100
AcDbLine
 10
186.321857625773
 20
15.270660658657
 30
0.0
 11
188.489493932086
 21
14.0201012511681
 31
0.0
  0
LINE
  5
85
330
4B
100
AcDbEntity
  8
Skizziergeometrie_ISO_
  6
Continuous
 62
     7
100
AcDbLine
 10
188.15634562976
 20
13.4426441938023
 30
0.0
 11
185.988710425088
 21
14.6932029657285
 31
0.0
  0
LINE
  5
86
330
4B
100
AcDbEntity
  8
Skizziergeometrie_ISO_
  6
Continuous
 62
     7
100
AcDbLine
 10
184.988523283636
 20
19.1539094835628
 30
0.0
 11
184.988523283636
 21
15.8473707016896
 31
0.0
  0
LINE
  5
87
330
4B
100
AcDbEntity
  8
Skizziergeometrie_ISO_
  6
Continuous
 62
     7
100
AcDbLine
 10
184.32185661697
 20
15.8473707016896
 30
0.0
 11
184.32185661697
 21
19.1539094835628
 31
0.0
  0
LINE
  5
88
330
4B
100
AcDbEntity
  8
Skizziergeometrie_ISO_
  6
Continuous
 62
     7
100
AcDbLine
 10
191.48842975933
 20
20.2327068952822
 30
0.0
 11
192.857882489926
 21
19.4426380122457
 31
0.0
  0
LINE
  5
89
330
4B
100
AcDbEntity
  8
Skizziergeometrie_ISO_
  6
Continuous
 62
     7
100
AcDbLine
 10
192.5247341876
 20
18.8651809548799
 30
0.0
 11
191.6551889415
 21
19.3668416737836
 31
0.0
  0
LINE
  5
8A
330
4B
100
AcDbEntity
  8
Skizziergeometrie_ISO_
  6
Continuous
 62
     7
100
AcDbLine
 10
191.6551889415
 20
19.3668416737836
 30
0.0
 11
191.6551889415
 21
17.8339734259596
 31
0.0
  0
LINE
  5
8B
330
4B
100
AcDbEntity
  8
Skizziergeometrie_ISO_
  6
Continuous
 62
     7
100
AcDbLine
 10
191.6551889415
 20
17.8339734259596
 30
0.0
 11
192.691308338763
 21
17.8339734259596
 31
0.0
  0
LINE
  5
8C
330
4B
100
AcDbEntity
  8
Skizziergeometrie_ISO_
  6
Continuous
 62
     7
100
AcDbLine
 10
192.691308338763
 20
17.1673067592928
 30
0.0
 11
191.6551889415
 21
17.1673067592928
 31
0.0
  0
LINE
  5
8D
330
4B
100
AcDbEntity
  8
Skizziergeometrie_ISO_
  6
Continuous
 62
     7
100
AcDbLine
 10
191.6551889415
 20
17.1673067592928
 30
0.0
 11
191.6551889415
 21
15.6344385114688
 31
0.0
  0
LINE
  5
8E
330
4B
100
AcDbEntity
  8
Skizziergeometrie_ISO_
  6
Continuous
 62
     7
100
AcDbLine
 10
191.6551889415
 20
15.6344385114688
 30
0.0
 11
192.5247341876
 21
16.1360992303725
 31
0.0
  0
LINE
  5
8F
330
4B
100
AcDbEntity
  8
Skizziergeometrie_ISO_
  6
Continuous
 62
     7
100
AcDbLine
 10
192.857882489926
 20
15.5586421730067
 30
0.0
 11
191.48842975933
 21
14.7685732899702
 31
0.0
  0
LINE
  5
90
330
4B
100
AcDbEntity
  8
Skizziergeometrie_ISO_
  6
Continuous
 62
     7
100
AcDbLine
 10
190.988522274833
 20
15.0573018186531
 30
0.0
 11
190.988522274833
 21
19.9439783665993
 31
0.0
  0
LINE
  5
91
330
4B
100
AcDbEntity
  8
Skizziergeometrie_ISO_
  6
Continuous
 62
     7
100
AcDbLine
 10
177.330189950303
 20
25.0006400926262
 30
0.0
 11
177.330189950303
 21
10.0006400926262
 31
0.0
  0
LINE
  5
92
330
4B
100
AcDbEntity
  8
Skizziergeometrie_ISO_
  6
Continuous
 62
     7
100
AcDbLine
 10
159.980189950303
 20
25.0006400926262
 30
0.0
 11
159.980189950303
 21
10.0006400926262
 31
0.0
  0
LINE
  5
93
330
4B
100
AcDbEntity
  8
Skizziergeometrie_ISO_
  6
Continuous
 62
     7
100
AcDbLine
 10
49.9801899503031
 20
10.0006400926262
 30
0.0
 11
49.9801899503031
 21
25.0006400926262
 31
0.0
  0
LINE
  5
94
330
4B
100
AcDbEntity
  8
Skizziergeometrie_ISO_
  6
Continuous
 62
     7
100
AcDbLine
 10
44.980189950303
 20
45.0006400926262
 30
0.0
 11
44.980189950303
 21
25.0006400926262
 31
0.0
  0
LINE
  5
95
330
4B
100
AcDbEntity
  8
Skizziergeometrie_ISO_
  6
Continuous
 62
     7
100
AcDbLine
 10
26.980189950303
 20
45.0006400926262
 30
0.0
 11
26.980189950303
 21
25.0006400926262
 31
0.0
  0
LINE
  5
96
330
4B
100
AcDbEntity
  8
Skizziergeometrie_ISO_
  6
Continuous
 62
     7
100
AcDbLine
 10
19.980189950303
 20
17.5006400926262
 30
0.0
 11
49.9801899503031
 21
17.5006400926262
 31
0.0
  0
LINE
  5
97
330
4B
100
AcDbEntity
  8
Skizziergeometrie_ISO_
  6
Continuous
 62
     7
100
AcDbLine
 10
19.980189950303
 20
25.0006400926262
 30
0.0
 11
199.980189950303
 21
25.0006400926262
 31
0.0
  0
LINE
  5
98
330
4B
100
AcDbEntity
  8
Skizziergeometrie_ISO_
  6
Continuous
 62
     7
100
AcDbLine
 10
19.980189950303
 20
30.0006400926262
 30
0.0
 11
199.980189950303
 21
30.0006400926262
 31
0.0
  0
LINE
  5
99
330
4B
100
AcDbEntity
  8
Skizziergeometrie_ISO_
  6
Continuous
 62
     7
100
AcDbLine
 10
19.980189950303
 20
35.0006400926262
 30
0.0
 11
199.980189950303
 21
35.0006400926262
 31
0.0
  0
LINE
  5
9A
330
4B
100
AcDbEntity
  8
Skizziergeometrie_ISO_
  6
Continuous
 62
     7
100
AcDbLine
 10
19.980189950303
 20
40.0006400926262
 30
0.0
 11
199.980189950303
 21
40.0006400926262
 31
0.0
  0
LINE
  5
9B
330
4B
100
AcDbEntity
  8
Skizziergeometrie_ISO_
  6
Continuous
 62
     7
100
AcDbLine
 10
19.980189950303
 20
45.0006400926262
 30
0.0
 11
199.980189950303
 21
45.0006400926262
 31
0.0
  0
LINE
  5
9C
102
{ACAD_REACTORS
330
D9
102
}
330
4B
100
AcDbEntity
  8
0
  6
Continuous
 62
     7
100
AcDbLine
 10
192.857882489926
 20
15.5586421730067
 30
0.0
 11
191.48842975933
 21
14.7685732899702
 31
0.0
  0
LINE
  5
9D
102
{ACAD_REACTORS
330
D9
102
}
330
4B
100
AcDbEntity
  8
0
  6
Continuous
 62
     7
100
AcDbLine
 10
190.988522274833
 20
15.0573018186531
 30
0.0
 11
190.988522274833
 21
19.9439783665993
 31
0.0
  0
LINE
  5
9E
102
{ACAD_REACTORS
330
D9
102
}
330
4B
100
AcDbEntity
  8
0
  6
Continuous
 62
     7
100
AcDbLine
 10
191.48842975933
 20
20.2327068952822
 30
0.0
 11
192.857882489926
 21
19.4426380122457
 31
0.0
  0
LINE
  5
9F
102
{ACAD_REACTORS
330
D9
102
}
330
4B
100
AcDbEntity
  8
0
  6
Continuous
 62
     7
100
AcDbLine
 10
192.5247341876
 20
18.8651809548799
 30
0.0
 11
191.6551889415
 21
19.3668416737836
 31
0.0
  0
LINE
  5
A0
102
{ACAD_REACTORS
330
D9
102
}
330
4B
100
AcDbEntity
  8
0
  6
Continuous
 62
     7
100
AcDbLine
 10
191.6551889415
 20
19.3668416737836
 30
0.0
 11
191.6551889415
 21
17.8339734259596
 31
0.0
  0
LINE
  5
A1
102
{ACAD_REACTORS
330
D9
102
}
330
4B
100
AcDbEntity
  8
0
  6
Continuous
 62
     7
100
AcDbLine
 10
191.6551889415
 20
17.8339734259596
 30
0.0
 11
192.691308338763
 21
17.8339734259596
 31
0.0
  0
LINE
  5
A2
102
{ACAD_REACTORS
330
D9
102
}
330
4B
100
AcDbEntity
  8
0
  6
Continuous
 62
     7
100
AcDbLine
 10
192.691308338763
 20
17.1673067592928
 30
0.0
 11
191.6551889415
 21
17.1673067592928
 31
0.0
  0
LINE
  5
A3
102
{ACAD_REACTORS
330
D9
102
}
330
4B
100
AcDbEntity
  8
0
  6
Continuous
 62
     7
100
AcDbLine
 10
191.6551889415
 20
17.1673067592928
 30
0.0
 11
191.6551889415
 21
15.6344385114688
 31
0.0
  0
LINE
  5
A4
102
{ACAD_REACTORS
330
D9
102
}
330
4B
100
AcDbEntity
  8
0
  6
Continuous
 62
     7
100
AcDbLine
 10
191.6551889415
 20
15.6344385114688
 30
0.0
 11
192.5247341876
 21
16.1360992303725
 31
0.0
  0
LINE
  5
A5
102
{ACAD_REACTORS
330
DA
102
}
330
4B
100
AcDbEntity
  8
0
  6
Continuous
 62
     7
100
AcDbLine
 10
186.988528696562
 20
20.7526980593071
 30
0.0
 11
186.988528696563
 21
15.8473707016896
 31
0.0
  0
LINE
  5
A6
102
{ACAD_REACTORS
330
DA
102
}
330
4B
100
AcDbEntity
  8
0
  6
Continuous
 62
     7
100
AcDbLine
 10
187.655195363229
 20
15.8473707016896
 30
0.0
 11
187.655195363229
 21
19.2535360148728
 31
0.0
  0
LINE
  5
A7
102
{ACAD_REACTORS
330
DA
102
}
330
4B
100
AcDbEntity
  8
0
  6
Continuous
 62
     7
100
AcDbLine
 10
187.655195363229
 20
19.2535360148728
 30
0.0
 11
188.510852383006
 21
17.7714945827671
 31
0.0
  0
LINE
  5
A8
102
{ACAD_REACTORS
330
DA
102
}
330
4B
100
AcDbEntity
  8
0
  6
Continuous
 62
     7
100
AcDbLine
 10
188.7995275176
 20
17.7714945827671
 30
0.0
 11
189.655184537377
 21
19.2535360148728
 31
0.0
  0
LINE
  5
A9
102
{ACAD_REACTORS
330
DA
102
}
330
4B
100
AcDbEntity
  8
0
  6
Continuous
 62
     7
100
AcDbLine
 10
189.655184537377
 20
19.2535360148728
 30
0.0
 11
189.655184537377
 21
14.2880685085818
 31
0.0
  0
LINE
  5
AA
102
{ACAD_REACTORS
330
DA
102
}
330
4B
100
AcDbEntity
  8
0
  6
Continuous
 62
     7
100
AcDbLine
 10
190.321851204044
 20
14.2880685085818
 30
0.0
 11
190.321851204044
 21
20.752698059307
 31
0.0
  0
LINE
  5
AB
102
{ACAD_REACTORS
330
DA
102
}
330
4B
100
AcDbEntity
  8
0
  6
Continuous
 62
     7
100
AcDbLine
 10
189.82741752042
 20
20.8851811655447
 30
0.0
 11
188.655189950303
 21
18.8548234560689
 31
0.0
  0
LINE
  5
AC
102
{ACAD_REACTORS
330
DA
102
}
330
4B
100
AcDbEntity
  8
0
  6
Continuous
 62
     7
100
AcDbLine
 10
188.655189950303
 20
18.8548234560689
 30
0.0
 11
187.482962380186
 21
20.8851811655447
 31
0.0
  0
LINE
  5
AD
102
{ACAD_REACTORS
330
DB
102
}
330
4B
100
AcDbEntity
  8
0
  6
Continuous
 62
     7
100
AcDbLine
 10
186.321857625773
 20
15.270660658657
 30
0.0
 11
186.321857625773
 21
19.9439783665993
 31
0.0
  0
LINE
  5
AE
102
{ACAD_REACTORS
330
DB
102
}
330
4B
100
AcDbEntity
  8
0
  6
Continuous
 62
     7
100
AcDbLine
 10
185.655190959106
 20
19.9439783665993
 30
0.0
 11
185.655190959106
 21
15.2706619304882
 31
0.0
  0
LINE
  5
AF
102
{ACAD_REACTORS
330
DB
102
}
330
4B
100
AcDbEntity
  8
0
  6
Continuous
 62
     7
100
AcDbLine
 10
185.988710425088
 20
14.6932029657285
 30
0.0
 11
188.15634562976
 21
13.4426441938023
 31
0.0
  0
LINE
  5
B0
102
{ACAD_REACTORS
330
DB
102
}
330
4B
100
AcDbEntity
  8
0
  6
Continuous
 62
     7
100
AcDbLine
 10
188.489493932086
 20
14.0201012511681
 30
0.0
 11
186.321857625773
 21
15.270660658657
 31
0.0
  0
LINE
  5
B1
102
{ACAD_REACTORS
330
DC
102
}
330
4B
100
AcDbEntity
  8
0
  6
Continuous
 62
     7
100
AcDbLine
 10
184.988523283636
 20
19.1539094835628
 30
0.0
 11
184.988523283636
 21
15.8473707016896
 31
0.0
  0
LINE
  5
B2
102
{ACAD_REACTORS
330
DC
102
}
330
4B
100
AcDbEntity
  8
0
  6
Continuous
 62
     7
100
AcDbLine
 10
184.32185661697
 20
15.8473707016896
 30
0.0
 11
184.32185661697
 21
19.1539094835628
 31
0.0
  0
ARC
  5
B3
330
4B
100
AcDbEntity
  8
Skizziergeometrie_ISO_
  6
Continuous
 62
     7
100
AcDbCircle
 10
188.655189950303
 20
17.8548279161004
 30
0.0
 40
0.1666666666662864
100
AcDbArc
 50
210.0000000000623
 51
329.9999999999426
  0
ARC
  5
B4
330
4B
100
AcDbEntity
  8
Skizziergeometrie_ISO_
  6
Continuous
 62
     7
100
AcDbCircle
 10
186.321859827834
 20
15.2706619304882
 30
0.0
 40
0.66666886872801
100
AcDbArc
 50
180.0
 51
240.0183606311481
  0
ARC
  5
B5
330
4B
100
AcDbEntity
  8
Skizziergeometrie_ISO_
  6
Continuous
 62
     7
100
AcDbCircle
 10
180.322041750744
 20
17.5006400926262
 30
0.0
 40
0.1666666666667581
100
AcDbArc
 50
119.9816393689942
 51
240.0183606310052
  0
ARC
  5
B6
330
4B
100
AcDbEntity
  8
Skizziergeometrie_ISO_
  6
Continuous
 62
     7
100
AcDbCircle
 10
196.988338149862
 20
17.5006400926262
 30
0.0
 40
0.166666666666755
100
AcDbArc
 50
299.9816393689947
 51
60.01836063100586
  0
ARC
  5
B7
330
4B
100
AcDbEntity
  8
Skizziergeometrie_ISO_
  6
Continuous
 62
     7
100
AcDbCircle
 10
191.321855608167
 20
19.9439783665993
 30
0.0
 40
0.3333333333332604
100
AcDbArc
 50
60.01836063118353
 51
180.0
  0
ARC
  5
B8
330
4B
100
AcDbEntity
  8
Skizziergeometrie_ISO_
  6
Continuous
 62
     7
100
AcDbCircle
 10
191.321855608167
 20
15.0573018186531
 30
0.0
 40
0.3333333333339965
100
AcDbArc
 50
180.0
 51
299.9816393688164
  0
ARC
  5
B9
330
4B
100
AcDbEntity
  8
Skizziergeometrie_ISO_
  6
Continuous
 62
     7
100
AcDbCircle
 10
187.253494909038
 20
20.7526980593071
 30
0.0
 40
0.2649662124751274
100
AcDbArc
 50
30.00000000000922
 51
180.0
  0
ARC
  5
BA
330
4B
100
AcDbEntity
  8
Skizziergeometrie_ISO_
  6
Continuous
 62
     7
100
AcDbCircle
 10
187.321862029896
 20
15.8473707016896
 30
0.0
 40
0.3333333333330017
100
AcDbArc
 50
180.0
 51
0.0
  0
ARC
  5
BB
330
4B
100
AcDbEntity
  8
Skizziergeometrie_ISO_
  6
Continuous
 62
     7
100
AcDbCircle
 10
189.98851787071
 20
14.2880685085818
 30
0.0
 40
0.3333333333330017
100
AcDbArc
 50
180.0
 51
0.0
  0
ARC
  5
BC
330
4B
100
AcDbEntity
  8
Skizziergeometrie_ISO_
  6
Continuous
 62
     7
100
AcDbCircle
 10
190.056884991568
 20
20.752698059307
 30
0.0
 40
0.2649662124759971
100
AcDbArc
 50
0.0
 51
149.9999999999752
  0
ARC
  5
BD
330
4B
100
AcDbEntity
  8
Skizziergeometrie_ISO_
  6
Continuous
 62
     7
100
AcDbCircle
 10
185.988524292439
 20
19.9439783665993
 30
0.0
 40
0.3333333333339965
100
AcDbArc
 50
0.0
 51
180.0
  0
ARC
  5
BE
330
4B
100
AcDbEntity
  8
Skizziergeometrie_ISO_
  6
Continuous
 62
     7
100
AcDbCircle
 10
188.322919780923
 20
13.7313727224852
 30
0.0
 40
0.3333333333332604
100
AcDbArc
 50
240.0183606311836
 51
60.01836063118368
  0
ARC
  5
BF
330
4B
100
AcDbEntity
  8
Skizziergeometrie_ISO_
  6
Continuous
 62
     7
100
AcDbCircle
 10
184.655189950303
 20
19.1539094835628
 30
0.0
 40
0.3333333333330017
100
AcDbArc
 50
0.0
 51
180.0
  0
ARC
  5
C0
330
4B
100
AcDbEntity
  8
Skizziergeometrie_ISO_
  6
Continuous
 62
     7
100
AcDbCircle
 10
184.655189950303
 20
15.8473707016896
 30
0.0
 40
0.3333333333330017
100
AcDbArc
 50
180.0
 51
0.0
  0
ARC
  5
C1
330
4B
100
AcDbEntity
  8
Skizziergeometrie_ISO_
  6
Continuous
 62
     7
100
AcDbCircle
 10
192.691308338763
 20
19.1539094835628
 30
0.0
 40
0.3333333333332746
100
AcDbArc
 50
240.0183606311793
 51
60.01836063118353
  0
ARC
  5
C2
330
4B
100
AcDbEntity
  8
Skizziergeometrie_ISO_
  6
Continuous
 62
     7
100
AcDbCircle
 10
192.691308338763
 20
17.5006400926262
 30
0.0
 40
0.3333333333333997
100
AcDbArc
 50
270.0
 51
90.0
  0
ARC
  5
C3
330
4B
100
AcDbEntity
  8
Skizziergeometrie_ISO_
  6
Continuous
 62
     7
100
AcDbCircle
 10
192.691308338763
 20
15.8473707016896
 30
0.0
 40
0.3333333333332619
100
AcDbArc
 50
299.9816393688163
 51
119.9816393688206
  0
ARC
  5
C4
102
{ACAD_REACTORS
330
D9
102
}
330
4B
100
AcDbEntity
  8
0
  6
Continuous
 62
     7
100
AcDbCircle
 10
191.321855608167
 20
15.0573018186531
 30
0.0
 40
0.3333333333339965
100
AcDbArc
 50
180.0
 51
299.9816393688164
  0
ARC
  5
C5
102
{ACAD_REACTORS
330
D9
102
}
330
4B
100
AcDbEntity
  8
0
  6
Continuous
 62
     7
100
AcDbCircle
 10
191.321855608167
 20
19.9439783665993
 30
0.0
 40
0.3333333333332604
100
AcDbArc
 50
60.01836063118353
 51
180.0
  0
ARC
  5
C6
102
{ACAD_REACTORS
330
D9
102
}
330
4B
100
AcDbEntity
  8
0
  6
Continuous
 62
     7
100
AcDbCircle
 10
192.691308338763
 20
19.1539094835628
 30
0.0
 40
0.3333333333332746
100
AcDbArc
 50
240.0183606311793
 51
60.01835942368935
  0
ARC
  5
C7
102
{ACAD_REACTORS
330
D9
102
}
330
4B
100
AcDbEntity
  8
0
  6
Continuous
 62
     7
100
AcDbCircle
 10
192.691308338763
 20
17.5006400926262
 30
0.0
 40
0.3333333333333997
100
AcDbArc
 50
270.0
 51
90.0
  0
ARC
  5
C8
102
{ACAD_REACTORS
330
D9
102
}
330
4B
100
AcDbEntity
  8
0
  6
Continuous
 62
     7
100
AcDbCircle
 10
192.691308338763
 20
15.8473707016896
 30
0.0
 40
0.3333333333332619
100
AcDbArc
 50
299.9816393688163
 51
119.9816393688206
  0
ARC
  5
C9
102
{ACAD_REACTORS
330
DA
102
}
330
4B
100
AcDbEntity
  8
0
  6
Continuous
 62
     7
100
AcDbCircle
 10
187.253494909038
 20
20.7526980593071
 30
0.0
 40
0.2649662124751274
100
AcDbArc
 50
30.00000000000922
 51
180.0
  0
ARC
  5
CA
102
{ACAD_REACTORS
330
DA
102
}
330
4B
100
AcDbEntity
  8
0
  6
Continuous
 62
     7
100
AcDbCircle
 10
187.321862029896
 20
15.8473707016896
 30
0.0
 40
0.3333333333330017
100
AcDbArc
 50
180.0
 51
0.0
  0
ARC
  5
CB
102
{ACAD_REACTORS
330
DA
102
}
330
4B
100
AcDbEntity
  8
0
  6
Continuous
 62
     7
100
AcDbCircle
 10
188.655189950303
 20
17.8548279161004
 30
0.0
 40
0.1666666666662864
100
AcDbArc
 50
210.0000000000623
 51
329.9999999999426
  0
ARC
  5
CC
102
{ACAD_REACTORS
330
DA
102
}
330
4B
100
AcDbEntity
  8
0
  6
Continuous
 62
     7
100
AcDbCircle
 10
189.98851787071
 20
14.2880685085818
 30
0.0
 40
0.3333333333330017
100
AcDbArc
 50
180.0
 51
0.0
  0
ARC
  5
CD
102
{ACAD_REACTORS
330
DA
102
}
330
4B
100
AcDbEntity
  8
0
  6
Continuous
 62
     7
100
AcDbCircle
 10
190.056884991568
 20
20.752698059307
 30
0.0
 40
0.2649662124759971
100
AcDbArc
 50
0.0
 51
149.9999999999752
  0
ARC
  5
CE
102
{ACAD_REACTORS
330
DB
102
}
330
4B
100
AcDbEntity
  8
0
  6
Continuous
 62
     7
100
AcDbCircle
 10
185.988524292439
 20
19.9439783665993
 30
0.0
 40
0.3333333333339965
100
AcDbArc
 50
0.0
 51
180.0
  0
ARC
  5
CF
102
{ACAD_REACTORS
330
DB
102
}
330
4B
100
AcDbEntity
  8
0
  6
Continuous
 62
     7
100
AcDbCircle
 10
186.321859827834
 20
15.2706619304882
 30
0.0
 40
0.66666886872801
100
AcDbArc
 50
180.0
 51
240.0183606311481
  0
ARC
  5
D0
102
{ACAD_REACTORS
330
DB
102
}
330
4B
100
AcDbEntity
  8
0
  6
Continuous
 62
     7
100
AcDbCircle
 10
188.322919780923
 20
13.7313727224852
 30
0.0
 40
0.3333333333332604
100
AcDbArc
 50
240.0183606311836
 51
60.01836063118368
  0
ARC
  5
D1
102
{ACAD_REACTORS
330
DC
102
}
330
4B
100
AcDbEntity
  8
0
  6
Continuous
 62
     7
100
AcDbCircle
 10
184.655189950303
 20
15.8473707016896
 30
0.0
 40
0.3333333333330017
100
AcDbArc
 50
180.0
 51
0.0
  0
ARC
  5
D2
102
{ACAD_REACTORS
330
DC
102
}
330
4B
100
AcDbEntity
  8
0
  6
Continuous
 62
     7
100
AcDbCircle
 10
184.655189950303
 20
19.1539094835628
 30
0.0
 40
0.3333333333330017
100
AcDbArc
 50
0.0
 51
180.0
  0
MTEXT
  5
D4
330
4B
100
AcDbEntity
  8
Symbole_ISO_
 62
     7
100
AcDbMText
 10
39.980189950303
 20
21.2506400926262
 30
0.0
 40
3.49999994039535
 41
0.0
 71
     5
 72
     1
  1
14.12.2006
  7
CONVERTER_11
 73
     1
 44
0.75727272727273
  0
MTEXT
  5
D6
330
4B
100
AcDbEntity
  8
Symbole_ISO_
 62
     7
100
AcDbMText
 10
168.655189950303
 20
22.5006400926262
 30
0.0
 40
2.5
 41
0.0
 71
     5
 72
     1
  1
Scale
  7
CONVERTER_12
 73
     1
 44
0.75727272727273
  0
MTEXT
  5
D7
330
4B
100
AcDbEntity
  8
Symbole_ISO_
 62
     7
100
AcDbMText
 10
20.980189950303
 20
13.7506400926262
 30
0.0
 40
2.5
 41
0.0
 71
     4
 72
     1
  1
Sign.
  7
CONVERTER_12
 73
     1
 44
0.75727272727273
  0
MTEXT
  5
D8
330
4B
100
AcDbEntity
  8
Symbole_ISO_
 62
     7
100
AcDbMText
 10
20.980189950303
 20
21.2506400926262
 30
0.0
 40
2.5
 41
0.0
 71
     4
 72
     1
  1
Date
  7
CONVERTER_12
 73
     1
 44
0.75727272727273
  0
HATCH
  5
D9
330
4B
100
AcDbEntity
  8
Schraffur
  6
Continuous
 62
     7
100
AcDbHatch
 10
0.0
 20
0.0
 30
0.0
210
0.0
220
0.0
230
1.0
  2
SOLID
 70
     1
 71
     1
 91
        1
 92
        1
 93
       14
 72
     2
 10
192.691308338763
 20
19.1539094835628
 40
0.3333333333332746
 50
299.9816405763107
 51
479.9816393688208
 73
     0
 72
     1
 10
192.5247341876
 20
18.8651809548799
 11
191.6551889415
 21
19.3668416737836
 72
     1
 10
191.6551889415
 20
19.3668416737836
 11
191.6551889415
 21
17.8339734259596
 72
     1
 10
191.6551889415
 20
17.8339734259596
 11
192.691308338763
 21
17.8339734259596
 72
     2
 10
192.691308338763
 20
17.5006400926262
 40
0.3333333333333997
 50
270.0
 51
450.0
 73
     0
 72
     1
 10
192.691308338763
 20
17.1673067592928
 11
191.6551889415
 21
17.1673067592928
 72
     1
 10
191.6551889415
 20
17.1673067592928
 11
191.6551889415
 21
15.6344385114688
 72
     1
 10
191.6551889415
 20
15.6344385114688
 11
192.5247341876
 21
16.1360992303725
 72
     2
 10
192.691308338763
 20
15.8473707016896
 40
0.3333333333332619
 50
240.0183606311795
 51
420.0183606311837
 73
     0
 72
     1
 10
192.857882489926
 20
15.5586421730067
 11
191.48842975933
 21
14.7685732899702
 72
     2
 10
191.321855608167
 20
15.0573018186531
 40
0.3333333333339965
 50
60.01836063118353
 51
180.0
 73
     0
 72
     1
 10
190.988522274833
 20
15.0573018186531
 11
190.988522274833
 21
19.9439783665993
 72
     2
 10
191.321855608167
 20
19.9439783665993
 40
0.3333333333332604
 50
180.0
 51
299.9816393688164
 73
     0
 72
     1
 10
191.48842975933
 20
20.2327068952822
 11
192.857882489926
 21
19.4426380122457
 97
       14
330
9C
330
C4
330
9D
330
C5
330
9E
330
C6
330
9F
330
A0
330
A1
330
C7
330
A2
330
A3
330
A4
330
C8
 75
     0
 76
     1
 98
        1
 10
0.0
 20
0.0
  0
HATCH
  5
DA
330
4B
100
AcDbEntity
  8
Schraffur
  6
Continuous
 62
     7
100
AcDbHatch
 10
0.0
 20
0.0
 30
0.0
210
0.0
220
0.0
230
1.0
  2
SOLID
 70
     1
 71
     1
 91
        1
 92
        1
 93
       13
 72
     2
 10
187.253494909038
 20
20.7526980593071
 40
0.2649662124751274
 50
30.00000000000922
 51
180.0
 73
     1
 72
     1
 10
186.988528696562
 20
20.7526980593071
 11
186.988528696563
 21
15.8473707016896
 72
     2
 10
187.321862029896
 20
15.8473707016896
 40
0.3333333333330017
 50
180.0
 51
360.0
 73
     1
 72
     1
 10
187.655195363229
 20
15.8473707016896
 11
187.655195363229
 21
19.2535360148728
 72
     1
 10
187.655195363229
 20
19.2535360148728
 11
188.510852383006
 21
17.7714945827671
 72
     2
 10
188.655189950303
 20
17.8548279161004
 40
0.1666666666662864
 50
210.0000000000623
 51
329.9999999999426
 73
     1
 72
     1
 10
188.7995275176
 20
17.7714945827671
 11
189.655184537377
 21
19.2535360148728
 72
     1
 10
189.655184537377
 20
19.2535360148728
 11
189.655184537377
 21
14.2880685085818
 72
     2
 10
189.98851787071
 20
14.2880685085818
 40
0.3333333333330017
 50
180.0
 51
360.0
 73
     1
 72
     1
 10
190.321851204044
 20
14.2880685085818
 11
190.321851204044
 21
20.752698059307
 72
     2
 10
190.056884991568
 20
20.752698059307
 40
0.2649662124759971
 50
0.0
 51
149.9999999999752
 73
     1
 72
     1
 10
189.82741752042
 20
20.8851811655447
 11
188.655189950303
 21
18.8548234560689
 72
     1
 10
188.655189950303
 20
18.8548234560689
 11
187.482962380186
 21
20.8851811655447
 97
       13
330
AB
330
CD
330
AA
330
CC
330
A9
330
A8
330
CB
330
A7
330
A6
330
CA
330
A5
330
C9
330
AC
 75
     0
 76
     1
 98
        1
 10
0.0
 20
0.0
  0
HATCH
  5
DB
330
4B
100
AcDbEntity
  8
Schraffur
  6
Continuous
 62
     7
100
AcDbHatch
 10
0.0
 20
0.0
 30
0.0
210
0.0
220
0.0
230
1.0
  2
SOLID
 70
     1
 71
     1
 91
        1
 92
        1
 93
        7
 72
     1
 10
186.321857625773
 20
15.270660658657
 11
186.321857625773
 21
19.9439783665993
 72
     2
 10
185.988524292439
 20
19.9439783665993
 40
0.3333333333339965
 50
0.0
 51
180.0
 73
     1
 72
     1
 10
185.655190959106
 20
19.9439783665993
 11
185.655190959106
 21
15.2706619304882
 72
     2
 10
186.321859827834
 20
15.2706619304882
 40
0.66666886872801
 50
180.0
 51
240.0183606311481
 73
     1
 72
     1
 10
185.988710425088
 20
14.6932029657285
 11
188.15634562976
 21
13.4426441938023
 72
     2
 10
188.322919780923
 20
13.7313727224852
 40
0.3333333333332604
 50
240.0183606311836
 51
420.0183606311837
 73
     1
 72
     1
 10
188.489493932086
 20
14.0201012511681
 11
186.321857625773
 21
15.270660658657
 97
        7
330
D0
330
AF
330
CF
330
AE
330
CE
330
AD
330
B0
 75
     0
 76
     1
 98
        1
 10
0.0
 20
0.0
  0
HATCH
  5
DC
330
4B
100
AcDbEntity
  8
Schraffur
  6
Continuous
 62
     7
100
AcDbHatch
 10
0.0
 20
0.0
 30
0.0
210
0.0
220
0.0
230
1.0
  2
SOLID
 70
     1
 71
     1
 91
        1
 92
        1
 93
        4
 72
     1
 10
184.988523283636
 20
19.1539094835628
 11
184.988523283636
 21
15.8473707016896
 72
     2
 10
184.655189950303
 20
15.8473707016896
 40
0.3333333333330017
 50
0.0
 51
180.0
 73
     0
 72
     1
 10
184.32185661697
 20
15.8473707016896
 11
184.32185661697
 21
19.1539094835628
 72
     2
 10
184.655189950303
 20
19.1539094835628
 40
0.3333333333330017
 50
180.0
 51
360.0
 73
     0
 97
        4
330
B1
330
D1
330
B2
330
D2
 75
     0
 76
     1
 98
        1
 10
0.0
 20
0.0
  0
ENDBLK
  5
4D
330
4B
100
AcDbEntity
  8
0
100
AcDbBlockEnd
  0
BLOCK
  5
4F
330
4E
100
AcDbEntity
  8
0
100
AcDbBlockBegin
  2
Ränder_Ilme_Rahmen_A4_quer
 70
     0
 10
0.0
 20
0.0
 30
0.0
  3
Ränder_Ilme_Rahmen_A4_quer
  1

  0
LINE
  5
DD
330
4E
100
AcDbEntity
  8
Skizziergeometrie_ISO_
  6
Continuous
 62
     7
100
AcDbLine
 10
287.0
 20
190.0
 30
0.0
 11
287.0
 21
10.0
 31
0.0
  0
LINE
  5
DE
330
4E
100
AcDbEntity
  8
Skizziergeometrie_ISO_
  6
Continuous
 62
     7
100
AcDbLine
 10
148.5
 20
210.0
 30
0.0
 11
148.5
 21
196.0
 31
0.0
  0
LINE
  5
DF
330
4E
100
AcDbEntity
  8
Skizziergeometrie_ISO_
  6
Continuous
 62
     7
100
AcDbLine
 10
9.99999999999998
 20
9.99999999999995
 30
0.0
 11
287.0
 21
10.0
 31
0.0
  0
LINE
  5
E0
330
4E
100
AcDbEntity
  8
Skizziergeometrie_ISO_
  6
Continuous
 62
     7
100
AcDbLine
 10
10.0
 20
190.0
 30
0.0
 11
287.0
 21
190.0
 31
0.0
  0
LINE
  5
E1
330
4E
100
AcDbEntity
  8
Skizziergeometrie_ISO_
  6
Continuous
 62
     7
100
AcDbLine
 10
9.99999999999998
 20
9.99999999999995
 30
0.0
 11
10.0
 21
190.0
 31
0.0
  0
MTEXT
  5
E2
330
4E
100
AcDbEntity
  8
Symbole_ISO_
 62
     7
100
AcDbMText
 10
148.5
 20
196.0
 30
0.0
 40
3.5
 41
0.0
 71
     2
 72
     1
  1
Diritti riservati     All rights reseved
  7
CONVERTER_12
 73
     1
 44
0.75727272727273
  0
ENDBLK
  5
50
330
4E
100
AcDbEntity
  8
0
100
AcDbBlockEnd
  0
BLOCK
  5
2E7
330
2DF
100
AcDbEntity
  8
0
100
AcDbBlockBegin
  2
*D3
 70
     1
 10
0.0
 20
0.0
 30
0.0
  3
*D3
  1

  0
LINE
  5
2E0
330
2DF
100
AcDbEntity
  8
Bemaßungen_TC_020513_DIN_
  6
Continuous
 62
     7
100
AcDbLine
 10
165.5107864335923
 20
155.1878053419807
 30
0.0
 11
170.5646429964106
 21
126.5259604983134
 31
0.0
  0
LINE
  5
2E1
330
2DF
100
AcDbEntity
  8
Bemaßungen_TC_020513_DIN_
  6
Continuous
 62
     7
100
AcDbLine
 10
155.7925267012271
 20
123.9212378333094
 30
0.0
 11
172.5342585024351
 21
126.8732568536473
 31
0.0
  0
LINE
  5
2E2
330
2DF
100
AcDbEntity
  8
Bemaßungen_TC_020513_DIN_
  6
Continuous
 62
     7
100
AcDbLine
 10
150.7386701384087
 20
152.5830826769767
 30
0.0
 11
167.4804019396167
 21
155.5351016973146
 31
0.0
  0
SOLID
  5
2E3
330
2DF
100
AcDbEntity
  8
Bemaßungen_TC_020513_DIN_
 62
     7
100
AcDbTrace
 10
166.2690378785784
 20
152.7829390001786
 30
0.0
 11
165.6207758769409
 21
152.6686329187218
 31
0.0
 12
165.5107864335923
 22
155.1878053419807
 32
0.0
 13
165.5107864335923
 23
155.1878053419807
 33
0.0
  0
SOLID
  5
2E4
330
2DF
100
AcDbEntity
  8
Bemaßungen_TC_020513_DIN_
 62
     7
100
AcDbTrace
 10
169.8063915514246
 20
128.9308268401156
 30
0.0
 11
170.454653553062
 21
129.0451329215723
 31
0.0
 12
170.5646429964106
 22
126.5259604983134
 32
0.0
 13
170.5646429964106
 23
126.5259604983134
 33
0.0
  0
MTEXT
  5
2E6
330
2DF
100
AcDbEntity
  8
Bemaßungen_TC_020513_DIN_
 62
     7
100
AcDbMText
 10
169.8269476112347
 20
146.0819421522941
 30
0.0
 40
3.5
 41
0.0
 71
     7
 72
     1
  1
NTP 1"
  7
CONVERTER_14
 11
0.1736481776669304
 21
-0.9848077530122081
 31
0.0
 73
     1
 44
0.45454545454545
  0
ENDBLK
  5
2E8
330
2DF
100
AcDbEntity
  8
0
100
AcDbBlockEnd
  0
BLOCK
  5
2F2
330
2EB
100
AcDbEntity
  8
0
100
AcDbBlockBegin
  2
*D4
 70
     1
 10
0.0
 20
0.0
 30
0.0
  3
*D4
  1

  0
LINE
  5
2EC
330
2EB
100
AcDbEntity
  8
Bemaßungen_TC_020513_DIN_
  6
Continuous
 62
     7
100
AcDbLine
 10
37.17488655324436
 20
158.5982917145396
 30
0.0
 11
37.17488655324436
 21
82.5982917145397
 31
0.0
  0
LINE
  5
2ED
330
2EB
100
AcDbEntity
  8
Bemaßungen_TC_020513_DIN_
  6
Continuous
 62
     7
100
AcDbLine
 10
64.1748865532443
 20
158.5982917145396
 30
0.0
 11
35.17488655324436
 21
158.5982917145396
 31
0.0
  0
LINE
  5
2EE
330
2EB
100
AcDbEntity
  8
Bemaßungen_TC_020513_DIN_
  6
Continuous
 62
     7
100
AcDbLine
 10
57.9108825571336
 20
82.5982917145397
 30
0.0
 11
35.17488655324436
 21
82.5982917145397
 31
0.0
  0
SOLID
  5
2EF
330
2EB
100
AcDbEntity
  8
Bemaßungen_TC_020513_DIN_
 62
     7
100
AcDbTrace
 10
36.84575530927587
 20
85.0982917145397
 30
0.0
 11
37.50401779721285
 21
85.0982917145397
 31
0.0
 12
37.17488655324436
 22
82.5982917145397
 32
0.0
 13
37.17488655324436
 23
82.5982917145397
 33
0.0
  0
SOLID
  5
2F0
330
2EB
100
AcDbEntity
  8
Bemaßungen_TC_020513_DIN_
 62
     7
100
AcDbTrace
 10
37.50401779721285
 20
156.0982917145396
 30
0.0
 11
36.84575530927587
 21
156.0982917145396
 31
0.0
 12
37.17488655324436
 22
158.5982917145396
 32
0.0
 13
37.17488655324436
 23
158.5982917145396
 33
0.0
  0
MTEXT
  5
2F1
330
2EB
100
AcDbEntity
  8
Bemaßungen_TC_020513_DIN_
 62
     7
100
AcDbMText
 10
34.5508756391925
 20
118.106988849601
 30
0.0
 40
3.5
 41
0.0
 71
     7
 72
     1
  1
76
  7
CONVERTER_14
 11
0.0
 21
1.0
 31
0.0
 73
     1
 44
0.45454545454545
  0
ENDBLK
  5
2F3
330
2EB
100
AcDbEntity
  8
0
100
AcDbBlockEnd
  0
BLOCK
  5
2FD
330
2F6
100
AcDbEntity
  8
0
100
AcDbBlockBegin
  2
*D5
 70
     1
 10
0.0
 20
0.0
 30
0.0
  3
*D5
  1

  0
LINE
  5
2F7
330
2F6
100
AcDbEntity
  8
Bemaßungen_TC_020513_DIN_
  6
Continuous
 62
     7
100
AcDbLine
 10
256.8729823827224
 20
72.59829171453967
 30
0.0
 11
213.8729823827224
 21
72.59829171453967
 31
0.0
  0
LINE
  5
2F8
330
2F6
100
AcDbEntity
  8
Bemaßungen_TC_020513_DIN_
  6
Continuous
 62
     7
100
AcDbLine
 10
256.8729823827224
 20
88.0691465261069
 30
0.0
 11
256.8729823827224
 21
70.59829171453967
 31
0.0
  0
LINE
  5
2F9
330
2F6
100
AcDbEntity
  8
Bemaßungen_TC_020513_DIN_
  6
Continuous
 62
     7
100
AcDbLine
 10
213.8729823827224
 20
88.0691465261069
 30
0.0
 11
213.8729823827224
 21
70.59829171453967
 31
0.0
  0
SOLID
  5
2FA
330
2F6
100
AcDbEntity
  8
Bemaßungen_TC_020513_DIN_
 62
     7
100
AcDbTrace
 10
216.3729823827224
 20
72.92742295850816
 30
0.0
 11
216.3729823827224
 21
72.26916047057118
 31
0.0
 12
213.8729823827224
 22
72.59829171453967
 32
0.0
 13
213.8729823827224
 23
72.59829171453967
 33
0.0
  0
SOLID
  5
2FB
330
2F6
100
AcDbEntity
  8
Bemaßungen_TC_020513_DIN_
 62
     7
100
AcDbTrace
 10
254.3729823827224
 20
72.26916047057118
 30
0.0
 11
254.3729823827224
 21
72.92742295850816
 31
0.0
 12
256.8729823827224
 22
72.59829171453967
 32
0.0
 13
256.8729823827224
 23
72.59829171453967
 33
0.0
  0
MTEXT
  5
2FC
330
2F6
100
AcDbEntity
  8
Bemaßungen_TC_020513_DIN_
 62
     7
100
AcDbMText
 10
232.79573135953
 20
75.2246900774319
 30
0.0
 40
3.5
 41
0.0
 71
     7
 72
     1
  1
43
  7
CONVERTER_14
 11
0.9999999999970619
 21
2.424068405545306E-6
 31
0.0
 73
     1
 44
0.45454545454545
  0
ENDBLK
  5
2FE
330
2F6
100
AcDbEntity
  8
0
100
AcDbBlockEnd
  0
BLOCK
  5
308
330
301
100
AcDbEntity
  8
0
100
AcDbBlockBegin
  2
*D6
 70
     1
 10
0.0
 20
0.0
 30
0.0
  3
*D6
  1

  0
LINE
  5
302
330
301
100
AcDbEntity
  8
Bemaßungen_TC_020513_DIN_
  6
Continuous
 62
     7
100
AcDbLine
 10
153.6608825571338
 20
61.59829171453966
 30
0.0
 11
45.6608825571338
 21
61.59829171453966
 31
0.0
  0
LINE
  5
303
330
301
100
AcDbEntity
  8
Bemaßungen_TC_020513_DIN_
  6
Continuous
 62
     7
100
AcDbLine
 10
153.6608825571338
 20
88.5982917145397
 30
0.0
 11
153.6608825571338
 21
59.59829171453966
 31
0.0
  0
LINE
  5
304
330
301
100
AcDbEntity
  8
Bemaßungen_TC_020513_DIN_
  6
Continuous
 62
     7
100
AcDbLine
 10
45.6608825571338
 20
88.5982917145397
 30
0.0
 11
45.6608825571338
 21
59.59829171453966
 31
0.0
  0
SOLID
  5
305
330
301
100
AcDbEntity
  8
Bemaßungen_TC_020513_DIN_
 62
     7
100
AcDbTrace
 10
48.1608825571338
 20
61.92742295850815
 30
0.0
 11
48.1608825571338
 21
61.26916047057117
 31
0.0
 12
45.6608825571338
 22
61.59829171453966
 32
0.0
 13
45.6608825571338
 23
61.59829171453966
 33
0.0
  0
SOLID
  5
306
330
301
100
AcDbEntity
  8
Bemaßungen_TC_020513_DIN_
 62
     7
100
AcDbTrace
 10
151.1608825571338
 20
61.26916047057117
 30
0.0
 11
151.1608825571338
 21
61.92742295850815
 31
0.0
 12
153.6608825571338
 22
61.59829171453966
 32
0.0
 13
153.6608825571338
 23
61.59829171453966
 33
0.0
  0
MTEXT
  5
307
330
301
100
AcDbEntity
  8
Bemaßungen_TC_020513_DIN_
 62
     7
100
AcDbMText
 10
95.955561956861
 20
64.2223026285915
 30
0.0
 40
3.5
 41
0.0
 71
     7
 72
     1
  1
108
  7
CONVERTER_14
 11
0.9999999999970619
 21
2.424068405545306E-6
 31
0.0
 73
     1
 44
0.45454545454545
  0
ENDBLK
  5
309
330
301
100
AcDbEntity
  8
0
100
AcDbBlockEnd
  0
BLOCK
  5
313
330
30C
100
AcDbEntity
  8
0
100
AcDbBlockBegin
  2
*D7
 70
     1
 10
0.0
 20
0.0
 30
0.0
  3
*D7
  1

  0
LINE
  5
30D
330
30C
100
AcDbEntity
  8
Bemaßungen_TC_020513_DIN_
  6
Continuous
 62
     7
100
AcDbLine
 10
52.9108825571334
 20
72.59829171453973
 30
0.0
 11
146.4108825571334
 21
72.59829171453946
 31
0.0
  0
LINE
  5
30E
330
30C
100
AcDbEntity
  8
Bemaßungen_TC_020513_DIN_
  6
Continuous
 62
     7
100
AcDbLine
 10
52.9108825571334
 20
81.59829171453967
 30
0.0
 11
52.9108825571334
 21
70.59829171453973
 31
0.0
  0
LINE
  5
30F
330
30C
100
AcDbEntity
  8
Bemaßungen_TC_020513_DIN_
  6
Continuous
 62
     7
100
AcDbLine
 10
146.4108825571334
 20
81.59829171453966
 30
0.0
 11
146.4108825571334
 21
70.59829171453946
 31
0.0
  0
SOLID
  5
310
330
30C
100
AcDbEntity
  8
Bemaßungen_TC_020513_DIN_
 62
     7
100
AcDbTrace
 10
143.9108825571334
 20
72.26916047057097
 30
0.0
 11
143.9108825571334
 21
72.92742295850795
 31
0.0
 12
146.4108825571334
 22
72.59829171453946
 32
0.0
 13
146.4108825571334
 23
72.59829171453946
 33
0.0
  0
SOLID
  5
311
330
30C
100
AcDbEntity
  8
Bemaßungen_TC_020513_DIN_
 62
     7
100
AcDbTrace
 10
55.4108825571334
 20
72.92742295850822
 30
0.0
 11
55.4108825571334
 21
72.26916047057124
 31
0.0
 12
52.9108825571334
 22
72.59829171453973
 32
0.0
 13
52.9108825571334
 23
72.59829171453973
 33
0.0
  0
MTEXT
  5
312
330
30C
100
AcDbEntity
  8
Bemaßungen_TC_020513_DIN_
 62
     7
100
AcDbMText
 10
95.102048996424
 20
75.8549765712928
 30
0.0
 40
3.5
 41
0.0
 71
     7
 72
     1
  1
93,5
  7
CONVERTER_14
 11
0.9999999999970619
 21
2.424068405545306E-6
 31
0.0
 73
     1
 44
0.45454545454545
  0
ENDBLK
  5
314
330
30C
100
AcDbEntity
  8
0
100
AcDbBlockEnd
  0
ENDSEC
  0
SECTION
  2
ENTITIES
  0
INSERT
  5
73
330
1F
100
AcDbEntity
  8
0
100
AcDbBlockReference
  2
Schriftfelder_Ilme
 10
87.019810049697
 20
-0.00064009262625
 30
0.0
  0
INSERT
  5
74
330
1F
100
AcDbEntity
  8
0
100
AcDbBlockReference
  2
Ränder_Ilme_Rahmen_A4_quer
 10
0.0
 20
0.0
 30
0.0
  0
POINT
  5
E3
330
1F
100
AcDbEntity
  8
Bemaßungen_TC_020513_DIN_
 62
     7
100
AcDbPoint
 10
154.807718948215
 20
123.747589655643
 30
0.0
  0
POINT
  5
E4
330
1F
100
AcDbEntity
  8
Bemaßungen_TC_020513_DIN_
 62
     7
100
AcDbPoint
 10
149.753862385397
 20
152.40943449931
 30
0.0
  0
POINT
  5
E5
330
1F
100
AcDbEntity
  8
Bemaßungen_TC_020513_DIN_
 62
     7
100
AcDbPoint
 10
65.1748865532443
 20
158.59829171454
 30
0.0
  0
POINT
  5
E6
330
1F
100
AcDbEntity
  8
Bemaßungen_TC_020513_DIN_
 62
     7
100
AcDbPoint
 10
58.9108825571336
 20
82.5982917145397
 30
0.0
  0
POINT
  5
E7
330
1F
100
AcDbEntity
  8
Bemaßungen_TC_020513_DIN_
 62
     7
100
AcDbPoint
 10
256.872982382723
 20
89.0691465261069
 30
0.0
  0
POINT
  5
E8
330
1F
100
AcDbEntity
  8
Bemaßungen_TC_020513_DIN_
 62
     7
100
AcDbPoint
 10
213.872982382723
 20
89.0691465261069
 30
0.0
  0
POINT
  5
E9
330
1F
100
AcDbEntity
  8
Bemaßungen_TC_020513_DIN_
 62
     7
100
AcDbPoint
 10
153.660882557134
 20
89.5982917145396
 30
0.0
  0
POINT
  5
EA
330
1F
100
AcDbEntity
  8
Bemaßungen_TC_020513_DIN_
 62
     7
100
AcDbPoint
 10
45.6608825571336
 20
89.5982917145396
 30
0.0
  0
POINT
  5
EB
330
1F
100
AcDbEntity
  8
Bemaßungen_TC_020513_DIN_
 62
     7
100
AcDbPoint
 10
52.9108825571336
 20
82.5982917145397
 30
0.0
  0
POINT
  5
EC
330
1F
100
AcDbEntity
  8
Bemaßungen_TC_020513_DIN_
 62
     7
100
AcDbPoint
 10
146.410882557134
 20
82.5982917145397
 30
0.0
  0
LINE
  5
17C
330
1F
100
AcDbEntity
  8
Sichtbare_Kanten_TC_020513_DIN_
  6
Continuous
 62
     7
100
AcDbLine
 10
250.872982382724
 20
158.59829171454
 30
0.0
 11
252.872982382724
 21
158.59829171454
 31
0.0
  0
LINE
  5
17D
330
1F
100
AcDbEntity
  8
Sichtbare_Kanten_TC_020513_DIN_
  6
Continuous
 62
     7
100
AcDbLine
 10
250.872982382724
 20
158.59829171454
 30
0.0
 11
219.872982382724
 21
158.59829171454
 31
0.0
  0
LINE
  5
17E
330
1F
100
AcDbEntity
  8
Sichtbare_Kanten_TC_020513_DIN_
  6
Continuous
 62
     7
100
AcDbLine
 10
217.872982382724
 20
158.59829171454
 30
0.0
 11
219.872982382724
 21
158.59829171454
 31
0.0
  0
LINE
  5
17F
330
1F
100
AcDbEntity
  8
Sichtbare_Kanten_TC_020513_DIN_
  6
Continuous
 62
     7
100
AcDbLine
 10
256.672982382722
 20
97.3101719298914
 30
0.0
 11
256.072982382723
 21
96.9637617683776
 31
0.0
  0
LINE
  5
180
330
1F
100
AcDbEntity
  8
Sichtbare_Kanten_TC_020513_DIN_
  6
Continuous
 62
     7
100
AcDbLine
 10
256.072982382723
 20
96.2328216607017
 30
0.0
 11
256.672982382722
 21
95.886411499188
 31
0.0
  0
LINE
  5
181
330
1F
100
AcDbEntity
  8
Sichtbare_Kanten_TC_020513_DIN_
  6
Continuous
 62
     7
100
AcDbLine
 10
255.872982382722
 20
96.6173516068638
 30
0.0
 11
255.872982382723
 21
96.5792318222155
 31
0.0
  0
LINE
  5
182
330
1F
100
AcDbEntity
  8
Sichtbare_Kanten_TC_020513_DIN_
  6
Continuous
 62
     7
100
AcDbLine
 10
236.872982382721
 20
97.6565820914051
 30
0.0
 11
236.872982382721
 21
95.5400013376742
 31
0.0
  0
LINE
  5
183
330
1F
100
AcDbEntity
  8
Sichtbare_Kanten_TC_020513_DIN_
  6
Continuous
 62
     7
100
AcDbLine
 10
214.872982382723
 20
96.6173516068638
 30
0.0
 11
214.872982382723
 21
96.5792318222155
 31
0.0
  0
LINE
  5
184
330
1F
100
AcDbEntity
  8
Sichtbare_Kanten_TC_020513_DIN_
  6
Continuous
 62
     7
100
AcDbLine
 10
214.672982382722
 20
96.2328216607017
 30
0.0
 11
214.072982382723
 21
95.886411499188
 31
0.0
  0
LINE
  5
185
330
1F
100
AcDbEntity
  8
Sichtbare_Kanten_TC_020513_DIN_
  6
Continuous
 62
     7
100
AcDbLine
 10
214.072982382723
 20
97.3101719298914
 30
0.0
 11
214.672982382722
 21
96.9637617683776
 31
0.0
  0
LINE
  5
186
330
1F
100
AcDbEntity
  8
Sichtbare_Kanten_TC_020513_DIN_
  6
Continuous
 62
     7
100
AcDbLine
 10
233.872982382721
 20
95.5400013376742
 30
0.0
 11
233.872982382721
 21
97.6565820914051
 31
0.0
  0
LINE
  5
187
330
1F
100
AcDbEntity
  8
Sichtbare_Kanten_TC_020513_DIN_
  6
Continuous
 62
     7
100
AcDbLine
 10
250.872982382721
 20
82.5982917145397
 30
0.0
 11
219.872982382721
 21
82.5982917145397
 31
0.0
  0
LINE
  5
188
330
1F
100
AcDbEntity
  8
Sichtbare_Kanten_TC_020513_DIN_
  6
Continuous
 62
     7
100
AcDbLine
 10
250.872982382719
 20
119.59829171454
 30
0.0
 11
219.872982382719
 21
119.59829171454
 31
0.0
  0
LINE
  5
189
330
1F
100
AcDbEntity
  8
Sichtbare_Kanten_TC_020513_DIN_
  6
Continuous
 62
     7
100
AcDbLine
 10
214.872982382723
 20
99.1173516068638
 30
0.0
 11
214.872982382723
 21
99.0792318222155
 31
0.0
  0
LINE
  5
18A
330
1F
100
AcDbEntity
  8
Sichtbare_Kanten_TC_020513_DIN_
  6
Continuous
 62
     7
100
AcDbLine
 10
214.872982382723
 20
101.617351606864
 30
0.0
 11
214.872982382723
 21
101.579231822216
 31
0.0
  0
LINE
  5
18B
330
1F
100
AcDbEntity
  8
Sichtbare_Kanten_TC_020513_DIN_
  6
Continuous
 62
     7
100
AcDbLine
 10
214.872982382722
 20
104.117351606864
 30
0.0
 11
214.872982382723
 21
104.079231822216
 31
0.0
  0
LINE
  5
18C
330
1F
100
AcDbEntity
  8
Sichtbare_Kanten_TC_020513_DIN_
  6
Continuous
 62
     7
100
AcDbLine
 10
214.872982382722
 20
106.617351606864
 30
0.0
 11
214.872982382723
 21
106.579231822216
 31
0.0
  0
LINE
  5
18D
330
1F
100
AcDbEntity
  8
Sichtbare_Kanten_TC_020513_DIN_
  6
Continuous
 62
     7
100
AcDbLine
 10
214.872982382722
 20
109.117351606864
 30
0.0
 11
214.872982382723
 21
109.079231822216
 31
0.0
  0
LINE
  5
18E
330
1F
100
AcDbEntity
  8
Sichtbare_Kanten_TC_020513_DIN_
  6
Continuous
 62
     7
100
AcDbLine
 10
214.672982382722
 20
98.7328216607017
 30
0.0
 11
214.072982382723
 21
98.386411499188
 31
0.0
  0
LINE
  5
18F
330
1F
100
AcDbEntity
  8
Sichtbare_Kanten_TC_020513_DIN_
  6
Continuous
 62
     7
100
AcDbLine
 10
214.072982382723
 20
99.8101719298914
 30
0.0
 11
214.672982382722
 21
99.4637617683776
 31
0.0
  0
LINE
  5
190
330
1F
100
AcDbEntity
  8
Sichtbare_Kanten_TC_020513_DIN_
  6
Continuous
 62
     7
100
AcDbLine
 10
214.672982382722
 20
101.232821660702
 30
0.0
 11
214.072982382723
 21
100.886411499188
 31
0.0
  0
LINE
  5
191
330
1F
100
AcDbEntity
  8
Sichtbare_Kanten_TC_020513_DIN_
  6
Continuous
 62
     7
100
AcDbLine
 10
214.072982382723
 20
102.310171929891
 30
0.0
 11
214.672982382722
 21
101.963761768378
 31
0.0
  0
LINE
  5
192
330
1F
100
AcDbEntity
  8
Sichtbare_Kanten_TC_020513_DIN_
  6
Continuous
 62
     7
100
AcDbLine
 10
214.672982382722
 20
103.732821660702
 30
0.0
 11
214.072982382723
 21
103.386411499188
 31
0.0
  0
LINE
  5
193
330
1F
100
AcDbEntity
  8
Sichtbare_Kanten_TC_020513_DIN_
  6
Continuous
 62
     7
100
AcDbLine
 10
214.072982382723
 20
104.810171929891
 30
0.0
 11
214.672982382722
 21
104.463761768378
 31
0.0
  0
LINE
  5
194
330
1F
100
AcDbEntity
  8
Sichtbare_Kanten_TC_020513_DIN_
  6
Continuous
 62
     7
100
AcDbLine
 10
214.672982382722
 20
106.232821660702
 30
0.0
 11
214.072982382723
 21
105.886411499188
 31
0.0
  0
LINE
  5
195
330
1F
100
AcDbEntity
  8
Sichtbare_Kanten_TC_020513_DIN_
  6
Continuous
 62
     7
100
AcDbLine
 10
214.072982382723
 20
107.310171929891
 30
0.0
 11
214.672982382722
 21
106.963761768378
 31
0.0
  0
LINE
  5
196
330
1F
100
AcDbEntity
  8
Sichtbare_Kanten_TC_020513_DIN_
  6
Continuous
 62
     7
100
AcDbLine
 10
214.672982382722
 20
108.732821660702
 30
0.0
 11
214.072982382723
 21
108.386411499188
 31
0.0
  0
LINE
  5
197
330
1F
100
AcDbEntity
  8
Sichtbare_Kanten_TC_020513_DIN_
  6
Continuous
 62
     7
100
AcDbLine
 10
214.072982382723
 20
109.810171929891
 30
0.0
 11
214.672982382722
 21
109.463761768378
 31
0.0
  0
LINE
  5
198
330
1F
100
AcDbEntity
  8
Sichtbare_Kanten_TC_020513_DIN_
  6
Continuous
 62
     7
100
AcDbLine
 10
256.672982382722
 20
99.8101719298913
 30
0.0
 11
256.072982382723
 21
99.4637617683776
 31
0.0
  0
LINE
  5
199
330
1F
100
AcDbEntity
  8
Sichtbare_Kanten_TC_020513_DIN_
  6
Continuous
 62
     7
100
AcDbLine
 10
256.072982382723
 20
98.7328216607017
 30
0.0
 11
256.672982382722
 21
98.386411499188
 31
0.0
  0
LINE
  5
19A
330
1F
100
AcDbEntity
  8
Sichtbare_Kanten_TC_020513_DIN_
  6
Continuous
 62
     7
100
AcDbLine
 10
255.872982382722
 20
99.1173516068638
 30
0.0
 11
255.872982382723
 21
99.0792318222155
 31
0.0
  0
LINE
  5
19B
330
1F
100
AcDbEntity
  8
Sichtbare_Kanten_TC_020513_DIN_
  6
Continuous
 62
     7
100
AcDbLine
 10
256.672982382722
 20
102.310171929891
 30
0.0
 11
256.072982382723
 21
101.963761768378
 31
0.0
  0
LINE
  5
19C
330
1F
100
AcDbEntity
  8
Sichtbare_Kanten_TC_020513_DIN_
  6
Continuous
 62
     7
100
AcDbLine
 10
256.072982382723
 20
101.232821660702
 30
0.0
 11
256.672982382722
 21
100.886411499188
 31
0.0
  0
LINE
  5
19D
330
1F
100
AcDbEntity
  8
Sichtbare_Kanten_TC_020513_DIN_
  6
Continuous
 62
     7
100
AcDbLine
 10
255.872982382722
 20
101.617351606864
 30
0.0
 11
255.872982382723
 21
101.579231822216
 31
0.0
  0
LINE
  5
19E
330
1F
100
AcDbEntity
  8
Sichtbare_Kanten_TC_020513_DIN_
  6
Continuous
 62
     7
100
AcDbLine
 10
256.672982382723
 20
104.810171929891
 30
0.0
 11
256.072982382723
 21
104.463761768378
 31
0.0
  0
LINE
  5
19F
330
1F
100
AcDbEntity
  8
Sichtbare_Kanten_TC_020513_DIN_
  6
Continuous
 62
     7
100
AcDbLine
 10
256.072982382723
 20
103.732821660702
 30
0.0
 11
256.672982382722
 21
103.386411499188
 31
0.0
  0
LINE
  5
1A0
330
1F
100
AcDbEntity
  8
Sichtbare_Kanten_TC_020513_DIN_
  6
Continuous
 62
     7
100
AcDbLine
 10
255.872982382722
 20
104.117351606864
 30
0.0
 11
255.872982382723
 21
104.079231822216
 31
0.0
  0
LINE
  5
1A1
330
1F
100
AcDbEntity
  8
Sichtbare_Kanten_TC_020513_DIN_
  6
Continuous
 62
     7
100
AcDbLine
 10
256.672982382723
 20
107.310171929891
 30
0.0
 11
256.072982382723
 21
106.963761768378
 31
0.0
  0
LINE
  5
1A2
330
1F
100
AcDbEntity
  8
Sichtbare_Kanten_TC_020513_DIN_
  6
Continuous
 62
     7
100
AcDbLine
 10
256.072982382723
 20
106.232821660702
 30
0.0
 11
256.672982382722
 21
105.886411499188
 31
0.0
  0
LINE
  5
1A3
330
1F
100
AcDbEntity
  8
Sichtbare_Kanten_TC_020513_DIN_
  6
Continuous
 62
     7
100
AcDbLine
 10
255.872982382722
 20
106.617351606864
 30
0.0
 11
255.872982382723
 21
106.579231822216
 31
0.0
  0
LINE
  5
1A4
330
1F
100
AcDbEntity
  8
Sichtbare_Kanten_TC_020513_DIN_
  6
Continuous
 62
     7
100
AcDbLine
 10
256.672982382723
 20
109.810171929891
 30
0.0
 11
256.072982382723
 21
109.463761768378
 31
0.0
  0
LINE
  5
1A5
330
1F
100
AcDbEntity
  8
Sichtbare_Kanten_TC_020513_DIN_
  6
Continuous
 62
     7
100
AcDbLine
 10
256.072982382723
 20
108.732821660702
 30
0.0
 11
256.672982382722
 21
108.386411499188
 31
0.0
  0
LINE
  5
1A6
330
1F
100
AcDbEntity
  8
Sichtbare_Kanten_TC_020513_DIN_
  6
Continuous
 62
     7
100
AcDbLine
 10
236.872982382721
 20
107.656582091405
 30
0.0
 11
236.872982382721
 21
105.540001337674
 31
0.0
  0
LINE
  5
1A7
330
1F
100
AcDbEntity
  8
Sichtbare_Kanten_TC_020513_DIN_
  6
Continuous
 62
     7
100
AcDbLine
 10
236.872982382721
 20
105.156582091405
 30
0.0
 11
236.872982382721
 21
103.040001337674
 31
0.0
  0
LINE
  5
1A8
330
1F
100
AcDbEntity
  8
Sichtbare_Kanten_TC_020513_DIN_
  6
Continuous
 62
     7
100
AcDbLine
 10
236.872982382721
 20
102.656582091405
 30
0.0
 11
236.872982382721
 21
100.540001337674
 31
0.0
  0
LINE
  5
1A9
330
1F
100
AcDbEntity
  8
Sichtbare_Kanten_TC_020513_DIN_
  6
Continuous
 62
     7
100
AcDbLine
 10
236.872982382721
 20
100.156582091405
 30
0.0
 11
236.872982382721
 21
98.0400013376742
 31
0.0
  0
LINE
  5
1AA
330
1F
100
AcDbEntity
  8
Sichtbare_Kanten_TC_020513_DIN_
  6
Continuous
 62
     7
100
AcDbLine
 10
233.872982382721
 20
98.0400013376742
 30
0.0
 11
233.872982382721
 21
100.156582091405
 31
0.0
  0
LINE
  5
1AB
330
1F
100
AcDbEntity
  8
Sichtbare_Kanten_TC_020513_DIN_
  6
Continuous
 62
     7
100
AcDbLine
 10
233.872982382721
 20
100.540001337674
 30
0.0
 11
233.872982382721
 21
102.656582091405
 31
0.0
  0
LINE
  5
1AC
330
1F
100
AcDbEntity
  8
Sichtbare_Kanten_TC_020513_DIN_
  6
Continuous
 62
     7
100
AcDbLine
 10
233.872982382721
 20
103.040001337674
 30
0.0
 11
233.872982382721
 21
105.156582091405
 31
0.0
  0
LINE
  5
1AD
330
1F
100
AcDbEntity
  8
Sichtbare_Kanten_TC_020513_DIN_
  6
Continuous
 62
     7
100
AcDbLine
 10
233.872982382721
 20
105.540001337674
 30
0.0
 11
233.872982382721
 21
107.656582091405
 31
0.0
  0
LINE
  5
1AE
330
1F
100
AcDbEntity
  8
Sichtbare_Kanten_TC_020513_DIN_
  6
Continuous
 62
     7
100
AcDbLine
 10
233.872982382721
 20
108.040001337674
 30
0.0
 11
233.872982382721
 21
110.156582091405
 31
0.0
  0
LINE
  5
1AF
330
1F
100
AcDbEntity
  8
Sichtbare_Kanten_TC_020513_DIN_
  6
Continuous
 62
     7
100
AcDbLine
 10
236.872982382721
 20
110.156582091405
 30
0.0
 11
236.872982382721
 21
108.040001337674
 31
0.0
  0
LINE
  5
1B0
330
1F
100
AcDbEntity
  8
Sichtbare_Kanten_TC_020513_DIN_
  6
Continuous
 62
     7
100
AcDbLine
 10
255.872982382722
 20
109.117351606864
 30
0.0
 11
255.872982382723
 21
109.079231822216
 31
0.0
  0
LINE
  5
1B1
330
1F
100
AcDbEntity
  8
Sichtbare_Kanten_TC_020513_DIN_
  6
Continuous
 62
     7
100
AcDbLine
 10
213.872982382752
 20
139.033651135021
 30
0.0
 11
213.872982382747
 21
136.220550656817
 31
0.0
  0
LINE
  5
1B2
330
1F
100
AcDbEntity
  8
Sichtbare_Kanten_TC_020513_DIN_
  6
Continuous
 62
     7
100
AcDbLine
 10
256.872982382752
 20
139.033651135021
 30
0.0
 11
256.872982382747
 21
136.220550656817
 31
0.0
  0
LINE
  5
1B3
330
1F
100
AcDbEntity
  8
Sichtbare_Kanten_TC_020513_DIN_
  6
Continuous
 62
     7
100
AcDbLine
 10
213.872982382724
 20
154.59829171454
 30
0.0
 11
213.872982382724
 21
151.09829171454
 31
0.0
  0
LINE
  5
1B4
330
1F
100
AcDbEntity
  8
Sichtbare_Kanten_TC_020513_DIN_
  6
Continuous
 62
     7
100
AcDbLine
 10
256.872982382724
 20
151.09829171454
 30
0.0
 11
256.872982382724
 21
154.59829171454
 31
0.0
  0
LINE
  5
1B5
330
1F
100
AcDbEntity
  8
Sichtbare_Kanten_TC_020513_DIN_
  6
Continuous
 62
     7
100
AcDbLine
 10
215.372982382723
 20
149.59829171454
 30
0.0
 11
213.872982382724
 21
151.09829171454
 31
0.0
  0
LINE
  5
1B6
330
1F
100
AcDbEntity
  8
Sichtbare_Kanten_TC_020513_DIN_
  6
Continuous
 62
     7
100
AcDbLine
 10
215.372982382723
 20
149.59829171454
 30
0.0
 11
215.372982382721
 21
120.59829171454
 31
0.0
  0
LINE
  5
1B7
330
1F
100
AcDbEntity
  8
Sichtbare_Kanten_TC_020513_DIN_
  6
Continuous
 62
     7
100
AcDbLine
 10
213.872982382723
 20
119.09829171454
 30
0.0
 11
215.372982382721
 21
120.59829171454
 31
0.0
  0
LINE
  5
1B8
330
1F
100
AcDbEntity
  8
Sichtbare_Kanten_TC_020513_DIN_
  6
Continuous
 62
     7
100
AcDbLine
 10
255.372982382721
 20
120.59829171454
 30
0.0
 11
256.872982382722
 21
119.09829171454
 31
0.0
  0
LINE
  5
1B9
330
1F
100
AcDbEntity
  8
Sichtbare_Kanten_TC_020513_DIN_
  6
Continuous
 62
     7
100
AcDbLine
 10
256.872982382724
 20
151.09829171454
 30
0.0
 11
255.372982382723
 21
149.59829171454
 31
0.0
  0
LINE
  5
1BA
330
1F
100
AcDbEntity
  8
Sichtbare_Kanten_TC_020513_DIN_
  6
Continuous
 62
     7
100
AcDbLine
 10
219.872982382721
 20
82.5982917145397
 30
0.0
 11
213.872982382723
 21
82.5982917145397
 31
0.0
  0
LINE
  5
1BB
330
1F
100
AcDbEntity
  8
Sichtbare_Kanten_TC_020513_DIN_
  6
Continuous
 62
     7
100
AcDbLine
 10
213.872982382723
 20
95.5400013376742
 30
0.0
 11
213.872982382723
 21
82.5982917145397
 31
0.0
  0
LINE
  5
1BC
330
1F
100
AcDbEntity
  8
Sichtbare_Kanten_TC_020513_DIN_
  6
Continuous
 62
     7
100
AcDbLine
 10
256.872982382723
 20
82.5982917145397
 30
0.0
 11
250.872982382721
 21
82.5982917145397
 31
0.0
  0
LINE
  5
1BD
330
1F
100
AcDbEntity
  8
Sichtbare_Kanten_TC_020513_DIN_
  6
Continuous
 62
     7
100
AcDbLine
 10
213.872982382723
 20
100.540001337674
 30
0.0
 11
213.872982382723
 21
100.156582091405
 31
0.0
  0
LINE
  5
1BE
330
1F
100
AcDbEntity
  8
Sichtbare_Kanten_TC_020513_DIN_
  6
Continuous
 62
     7
100
AcDbLine
 10
213.872982382723
 20
103.040001337674
 30
0.0
 11
213.872982382723
 21
102.656582091405
 31
0.0
  0
LINE
  5
1BF
330
1F
100
AcDbEntity
  8
Sichtbare_Kanten_TC_020513_DIN_
  6
Continuous
 62
     7
100
AcDbLine
 10
213.872982382723
 20
105.540001337674
 30
0.0
 11
213.872982382723
 21
105.156582091405
 31
0.0
  0
LINE
  5
1C0
330
1F
100
AcDbEntity
  8
Sichtbare_Kanten_TC_020513_DIN_
  6
Continuous
 62
     7
100
AcDbLine
 10
213.872982382723
 20
108.040001337674
 30
0.0
 11
213.872982382723
 21
107.656582091405
 31
0.0
  0
LINE
  5
1C1
330
1F
100
AcDbEntity
  8
Sichtbare_Kanten_TC_020513_DIN_
  6
Continuous
 62
     7
100
AcDbLine
 10
213.872982382723
 20
119.09829171454
 30
0.0
 11
213.872982382723
 21
119.073359733384
 31
0.0
  0
LINE
  5
1C2
330
1F
100
AcDbEntity
  8
Sichtbare_Kanten_TC_020513_DIN_
  6
Continuous
 62
     7
100
AcDbLine
 10
213.872982382723
 20
119.073359733384
 30
0.0
 11
213.872982382723
 21
110.156582091405
 31
0.0
  0
LINE
  5
1C3
330
1F
100
AcDbEntity
  8
Sichtbare_Kanten_TC_020513_DIN_
  6
Continuous
 62
     7
100
AcDbLine
 10
213.872982382723
 20
98.0400013376742
 30
0.0
 11
213.872982382723
 21
97.6565820914051
 31
0.0
  0
LINE
  5
1C4
330
1F
100
AcDbEntity
  8
Sichtbare_Kanten_TC_020513_DIN_
  6
Continuous
 62
     7
100
AcDbLine
 10
256.872982382723
 20
97.6565820914051
 30
0.0
 11
256.872982382723
 21
98.0400013376742
 31
0.0
  0
LINE
  5
1C5
330
1F
100
AcDbEntity
  8
Sichtbare_Kanten_TC_020513_DIN_
  6
Continuous
 62
     7
100
AcDbLine
 10
256.872982382723
 20
100.156582091405
 30
0.0
 11
256.872982382723
 21
100.540001337674
 31
0.0
  0
LINE
  5
1C6
330
1F
100
AcDbEntity
  8
Sichtbare_Kanten_TC_020513_DIN_
  6
Continuous
 62
     7
100
AcDbLine
 10
256.872982382723
 20
102.656582091405
 30
0.0
 11
256.872982382723
 21
103.040001337674
 31
0.0
  0
LINE
  5
1C7
330
1F
100
AcDbEntity
  8
Sichtbare_Kanten_TC_020513_DIN_
  6
Continuous
 62
     7
100
AcDbLine
 10
256.872982382723
 20
105.156582091405
 30
0.0
 11
256.872982382723
 21
105.540001337674
 31
0.0
  0
LINE
  5
1C8
330
1F
100
AcDbEntity
  8
Sichtbare_Kanten_TC_020513_DIN_
  6
Continuous
 62
     7
100
AcDbLine
 10
256.872982382723
 20
119.073359733384
 30
0.0
 11
256.872982382722
 21
119.09829171454
 31
0.0
  0
LINE
  5
1C9
330
1F
100
AcDbEntity
  8
Sichtbare_Kanten_TC_020513_DIN_
  6
Continuous
 62
     7
100
AcDbLine
 10
256.872982382723
 20
110.156582091405
 30
0.0
 11
256.872982382723
 21
119.073359733384
 31
0.0
  0
LINE
  5
1CA
330
1F
100
AcDbEntity
  8
Sichtbare_Kanten_TC_020513_DIN_
  6
Continuous
 62
     7
100
AcDbLine
 10
256.872982382723
 20
107.656582091405
 30
0.0
 11
256.872982382723
 21
108.040001337674
 31
0.0
  0
LINE
  5
1CB
330
1F
100
AcDbEntity
  8
Sichtbare_Kanten_TC_020513_DIN_
  6
Continuous
 62
     7
100
AcDbLine
 10
255.372982382721
 20
120.59829171454
 30
0.0
 11
255.372982382723
 21
149.59829171454
 31
0.0
  0
LINE
  5
1CC
330
1F
100
AcDbEntity
  8
Sichtbare_Kanten_TC_020513_DIN_
  6
Continuous
 62
     7
100
AcDbLine
 10
256.872982382723
 20
82.5982917145397
 30
0.0
 11
256.872982382723
 21
95.5400013376742
 31
0.0
  0
LINE
  5
1CD
330
1F
100
AcDbEntity
  8
Sichtbare_Kanten_TC_020513_DIN_
  6
Continuous
 62
     7
100
AcDbLine
 10
152.460882557134
 20
94.0982917145396
 30
0.0
 11
146.610882557134
 21
94.0982917145396
 31
0.0
  0
LINE
  5
1CE
330
1F
100
AcDbEntity
  8
Sichtbare_Kanten_TC_020513_DIN_
  6
Continuous
 62
     7
100
AcDbLine
 10
152.460882557134
 20
85.0982917145396
 30
0.0
 11
146.610882557134
 21
85.0982917145396
 31
0.0
  0
LINE
  5
1CF
330
1F
100
AcDbEntity
  8
Sichtbare_Kanten_TC_020513_DIN_
  6
Continuous
 62
     7
100
AcDbLine
 10
152.660882557134
 20
91.0982917145396
 30
0.0
 11
152.460882557134
 21
91.0982917145396
 31
0.0
  0
LINE
  5
1D0
330
1F
100
AcDbEntity
  8
Sichtbare_Kanten_TC_020513_DIN_
  6
Continuous
 62
     7
100
AcDbLine
 10
152.660882557134
 20
88.0982917145396
 30
0.0
 11
152.460882557134
 21
88.0982917145396
 31
0.0
  0
LINE
  5
1D1
330
1F
100
AcDbEntity
  8
Sichtbare_Kanten_TC_020513_DIN_
  6
Continuous
 62
     7
100
AcDbLine
 10
153.660882557134
 20
94.0982917145396
 30
0.0
 11
152.660882557134
 21
94.0982917145396
 31
0.0
  0
LINE
  5
1D2
330
1F
100
AcDbEntity
  8
Sichtbare_Kanten_TC_020513_DIN_
  6
Continuous
 62
     7
100
AcDbLine
 10
153.660882557134
 20
85.0982917145396
 30
0.0
 11
152.660882557134
 21
85.0982917145396
 31
0.0
  0
LINE
  5
1D3
330
1F
100
AcDbEntity
  8
Sichtbare_Kanten_TC_020513_DIN_
  6
Continuous
 62
     7
100
AcDbLine
 10
146.610882557134
 20
91.0982917145396
 30
0.0
 11
146.410882557134
 21
91.0982917145396
 31
0.0
  0
LINE
  5
1D4
330
1F
100
AcDbEntity
  8
Sichtbare_Kanten_TC_020513_DIN_
  6
Continuous
 62
     7
100
AcDbLine
 10
146.610882557134
 20
88.0982917145396
 30
0.0
 11
146.410882557134
 21
88.0982917145396
 31
0.0
  0
LINE
  5
1D5
330
1F
100
AcDbEntity
  8
Sichtbare_Kanten_TC_020513_DIN_
  6
Continuous
 62
     7
100
AcDbLine
 10
146.610882557134
 20
94.0982917145396
 30
0.0
 11
146.610882557134
 21
85.0982917145396
 31
0.0
  0
LINE
  5
1D6
330
1F
100
AcDbEntity
  8
Sichtbare_Kanten_TC_020513_DIN_
  6
Continuous
 62
     7
100
AcDbLine
 10
152.460882557134
 20
94.0982917145396
 30
0.0
 11
152.460882557134
 21
85.0982917145396
 31
0.0
  0
LINE
  5
1D7
330
1F
100
AcDbEntity
  8
Sichtbare_Kanten_TC_020513_DIN_
  6
Continuous
 62
     7
100
AcDbLine
 10
152.660882557134
 20
94.0982917145396
 30
0.0
 11
152.660882557134
 21
85.0982917145396
 31
0.0
  0
LINE
  5
1D8
330
1F
100
AcDbEntity
  8
Sichtbare_Kanten_TC_020513_DIN_
  6
Continuous
 62
     7
100
AcDbLine
 10
153.660882557134
 20
94.0982917145396
 30
0.0
 11
153.660882557134
 21
85.0982917145396
 31
0.0
  0
LINE
  5
1D9
330
1F
100
AcDbEntity
  8
Sichtbare_Kanten_TC_020513_DIN_
  6
Continuous
 62
     7
100
AcDbLine
 10
52.7108825571336
 20
94.0982917145396
 30
0.0
 11
46.8608825571336
 21
94.0982917145396
 31
0.0
  0
LINE
  5
1DA
330
1F
100
AcDbEntity
  8
Sichtbare_Kanten_TC_020513_DIN_
  6
Continuous
 62
     7
100
AcDbLine
 10
52.7108825571336
 20
85.0982917145396
 30
0.0
 11
46.8608825571336
 21
85.0982917145396
 31
0.0
  0
LINE
  5
1DB
330
1F
100
AcDbEntity
  8
Sichtbare_Kanten_TC_020513_DIN_
  6
Continuous
 62
     7
100
AcDbLine
 10
46.8608825571336
 20
91.0982917145396
 30
0.0
 11
46.6608825571336
 21
91.0982917145396
 31
0.0
  0
LINE
  5
1DC
330
1F
100
AcDbEntity
  8
Sichtbare_Kanten_TC_020513_DIN_
  6
Continuous
 62
     7
100
AcDbLine
 10
46.8608825571336
 20
88.0982917145396
 30
0.0
 11
46.6608825571336
 21
88.0982917145396
 31
0.0
  0
LINE
  5
1DD
330
1F
100
AcDbEntity
  8
Sichtbare_Kanten_TC_020513_DIN_
  6
Continuous
 62
     7
100
AcDbLine
 10
46.6608825571336
 20
94.0982917145396
 30
0.0
 11
45.6608825571336
 21
94.0982917145396
 31
0.0
  0
LINE
  5
1DE
330
1F
100
AcDbEntity
  8
Sichtbare_Kanten_TC_020513_DIN_
  6
Continuous
 62
     7
100
AcDbLine
 10
46.6608825571336
 20
85.0982917145396
 30
0.0
 11
45.6608825571336
 21
85.0982917145396
 31
0.0
  0
LINE
  5
1DF
330
1F
100
AcDbEntity
  8
Sichtbare_Kanten_TC_020513_DIN_
  6
Continuous
 62
     7
100
AcDbLine
 10
52.9108825571336
 20
91.0982917145396
 30
0.0
 11
52.7108825571336
 21
91.0982917145396
 31
0.0
  0
LINE
  5
1E0
330
1F
100
AcDbEntity
  8
Sichtbare_Kanten_TC_020513_DIN_
  6
Continuous
 62
     7
100
AcDbLine
 10
52.9108825571336
 20
88.0982917145396
 30
0.0
 11
52.7108825571336
 21
88.0982917145396
 31
0.0
  0
LINE
  5
1E1
330
1F
100
AcDbEntity
  8
Sichtbare_Kanten_TC_020513_DIN_
  6
Continuous
 62
     7
100
AcDbLine
 10
52.7108825571336
 20
94.0982917145396
 30
0.0
 11
52.7108825571336
 21
85.0982917145396
 31
0.0
  0
LINE
  5
1E2
330
1F
100
AcDbEntity
  8
Sichtbare_Kanten_TC_020513_DIN_
  6
Continuous
 62
     7
100
AcDbLine
 10
46.8608825571336
 20
94.0982917145396
 30
0.0
 11
46.8608825571336
 21
85.0982917145396
 31
0.0
  0
LINE
  5
1E3
330
1F
100
AcDbEntity
  8
Sichtbare_Kanten_TC_020513_DIN_
  6
Continuous
 62
     7
100
AcDbLine
 10
46.6608825571336
 20
94.0982917145396
 30
0.0
 11
46.6608825571336
 21
85.0982917145396
 31
0.0
  0
LINE
  5
1E4
330
1F
100
AcDbEntity
  8
Sichtbare_Kanten_TC_020513_DIN_
  6
Continuous
 62
     7
100
AcDbLine
 10
45.6608825571336
 20
94.0982917145396
 30
0.0
 11
45.6608825571336
 21
85.0982917145396
 31
0.0
  0
LINE
  5
1E5
330
1F
100
AcDbEntity
  8
Sichtbare_Kanten_TC_020513_DIN_
  6
Continuous
 62
     7
100
AcDbLine
 10
146.210882557134
 20
97.3101719298913
 30
0.0
 11
145.610882557134
 21
96.9637617683776
 31
0.0
  0
LINE
  5
1E6
330
1F
100
AcDbEntity
  8
Sichtbare_Kanten_TC_020513_DIN_
  6
Continuous
 62
     7
100
AcDbLine
 10
53.1108825571336
 20
97.3101719298914
 30
0.0
 11
53.7108825571336
 21
96.9637617683776
 31
0.0
  0
LINE
  5
1E7
330
1F
100
AcDbEntity
  8
Sichtbare_Kanten_TC_020513_DIN_
  6
Continuous
 62
     7
100
AcDbLine
 10
53.7108825571336
 20
96.2328216607017
 30
0.0
 11
53.1108825571336
 21
95.886411499188
 31
0.0
  0
LINE
  5
1E8
330
1F
100
AcDbEntity
  8
Sichtbare_Kanten_TC_020513_DIN_
  6
Continuous
 62
     7
100
AcDbLine
 10
145.610882557134
 20
96.2328216607017
 30
0.0
 11
146.210882557134
 21
95.886411499188
 31
0.0
  0
LINE
  5
1E9
330
1F
100
AcDbEntity
  8
Sichtbare_Kanten_TC_020513_DIN_
  6
Continuous
 62
     7
100
AcDbLine
 10
53.9108825571336
 20
96.6173516068638
 30
0.0
 11
53.9108825571336
 21
96.5792318222155
 31
0.0
  0
LINE
  5
1EA
330
1F
100
AcDbEntity
  8
Sichtbare_Kanten_TC_020513_DIN_
  6
Continuous
 62
     7
100
AcDbLine
 10
145.410882557134
 20
96.6173516068638
 30
0.0
 11
145.410882557134
 21
96.5792318222155
 31
0.0
  0
LINE
  5
1EB
330
1F
100
AcDbEntity
  8
Sichtbare_Kanten_TC_020513_DIN_
  6
Continuous
 62
     7
100
AcDbLine
 10
52.9108825571336
 20
97.6565820914051
 30
0.0
 11
52.9108825571336
 21
95.5400013376742
 31
0.0
  0
LINE
  5
1EC
330
1F
100
AcDbEntity
  8
Sichtbare_Kanten_TC_020513_DIN_
  6
Continuous
 62
     7
100
AcDbLine
 10
146.410882557134
 20
95.5400013376742
 30
0.0
 11
146.410882557134
 21
97.6565820914051
 31
0.0
  0
LINE
  5
1ED
330
1F
100
AcDbEntity
  8
Sichtbare_Kanten_TC_020513_DIN_
  6
Continuous
 62
     7
100
AcDbLine
 10
146.210882557134
 20
99.8101719298913
 30
0.0
 11
145.610882557134
 21
99.4637617683776
 31
0.0
  0
LINE
  5
1EE
330
1F
100
AcDbEntity
  8
Sichtbare_Kanten_TC_020513_DIN_
  6
Continuous
 62
     7
100
AcDbLine
 10
53.1108825571336
 20
99.8101719298913
 30
0.0
 11
53.7108825571336
 21
99.4637617683776
 31
0.0
  0
LINE
  5
1EF
330
1F
100
AcDbEntity
  8
Sichtbare_Kanten_TC_020513_DIN_
  6
Continuous
 62
     7
100
AcDbLine
 10
53.7108825571336
 20
98.7328216607017
 30
0.0
 11
53.1108825571336
 21
98.3864114991879
 31
0.0
  0
LINE
  5
1F0
330
1F
100
AcDbEntity
  8
Sichtbare_Kanten_TC_020513_DIN_
  6
Continuous
 62
     7
100
AcDbLine
 10
145.610882557134
 20
98.7328216607017
 30
0.0
 11
146.210882557134
 21
98.386411499188
 31
0.0
  0
LINE
  5
1F1
330
1F
100
AcDbEntity
  8
Sichtbare_Kanten_TC_020513_DIN_
  6
Continuous
 62
     7
100
AcDbLine
 10
53.9108825571336
 20
99.1173516068638
 30
0.0
 11
53.9108825571336
 21
99.0792318222155
 31
0.0
  0
LINE
  5
1F2
330
1F
100
AcDbEntity
  8
Sichtbare_Kanten_TC_020513_DIN_
  6
Continuous
 62
     7
100
AcDbLine
 10
145.410882557134
 20
99.1173516068638
 30
0.0
 11
145.410882557134
 21
99.0792318222155
 31
0.0
  0
LINE
  5
1F3
330
1F
100
AcDbEntity
  8
Sichtbare_Kanten_TC_020513_DIN_
  6
Continuous
 62
     7
100
AcDbLine
 10
146.210882557134
 20
102.310171929891
 30
0.0
 11
145.610882557134
 21
101.963761768378
 31
0.0
  0
LINE
  5
1F4
330
1F
100
AcDbEntity
  8
Sichtbare_Kanten_TC_020513_DIN_
  6
Continuous
 62
     7
100
AcDbLine
 10
53.1108825571336
 20
102.310171929891
 30
0.0
 11
53.7108825571336
 21
101.963761768378
 31
0.0
  0
LINE
  5
1F5
330
1F
100
AcDbEntity
  8
Sichtbare_Kanten_TC_020513_DIN_
  6
Continuous
 62
     7
100
AcDbLine
 10
53.7108825571336
 20
101.232821660702
 30
0.0
 11
53.1108825571336
 21
100.886411499188
 31
0.0
  0
LINE
  5
1F6
330
1F
100
AcDbEntity
  8
Sichtbare_Kanten_TC_020513_DIN_
  6
Continuous
 62
     7
100
AcDbLine
 10
145.610882557134
 20
101.232821660702
 30
0.0
 11
146.210882557134
 21
100.886411499188
 31
0.0
  0
LINE
  5
1F7
330
1F
100
AcDbEntity
  8
Sichtbare_Kanten_TC_020513_DIN_
  6
Continuous
 62
     7
100
AcDbLine
 10
53.9108825571336
 20
101.617351606864
 30
0.0
 11
53.9108825571336
 21
101.579231822216
 31
0.0
  0
LINE
  5
1F8
330
1F
100
AcDbEntity
  8
Sichtbare_Kanten_TC_020513_DIN_
  6
Continuous
 62
     7
100
AcDbLine
 10
145.410882557134
 20
101.617351606864
 30
0.0
 11
145.410882557134
 21
101.579231822216
 31
0.0
  0
LINE
  5
1F9
330
1F
100
AcDbEntity
  8
Sichtbare_Kanten_TC_020513_DIN_
  6
Continuous
 62
     7
100
AcDbLine
 10
146.210882557134
 20
104.810171929891
 30
0.0
 11
145.610882557134
 21
104.463761768378
 31
0.0
  0
LINE
  5
1FA
330
1F
100
AcDbEntity
  8
Sichtbare_Kanten_TC_020513_DIN_
  6
Continuous
 62
     7
100
AcDbLine
 10
53.1108825571336
 20
104.810171929891
 30
0.0
 11
53.7108825571336
 21
104.463761768378
 31
0.0
  0
LINE
  5
1FB
330
1F
100
AcDbEntity
  8
Sichtbare_Kanten_TC_020513_DIN_
  6
Continuous
 62
     7
100
AcDbLine
 10
53.7108825571336
 20
103.732821660702
 30
0.0
 11
53.1108825571336
 21
103.386411499188
 31
0.0
  0
LINE
  5
1FC
330
1F
100
AcDbEntity
  8
Sichtbare_Kanten_TC_020513_DIN_
  6
Continuous
 62
     7
100
AcDbLine
 10
145.610882557134
 20
103.732821660702
 30
0.0
 11
146.210882557134
 21
103.386411499188
 31
0.0
  0
LINE
  5
1FD
330
1F
100
AcDbEntity
  8
Sichtbare_Kanten_TC_020513_DIN_
  6
Continuous
 62
     7
100
AcDbLine
 10
53.9108825571336
 20
104.117351606864
 30
0.0
 11
53.9108825571336
 21
104.079231822216
 31
0.0
  0
LINE
  5
1FE
330
1F
100
AcDbEntity
  8
Sichtbare_Kanten_TC_020513_DIN_
  6
Continuous
 62
     7
100
AcDbLine
 10
145.410882557134
 20
104.117351606864
 30
0.0
 11
145.410882557134
 21
104.079231822216
 31
0.0
  0
LINE
  5
1FF
330
1F
100
AcDbEntity
  8
Sichtbare_Kanten_TC_020513_DIN_
  6
Continuous
 62
     7
100
AcDbLine
 10
146.210882557134
 20
107.310171929891
 30
0.0
 11
145.610882557134
 21
106.963761768378
 31
0.0
  0
LINE
  5
200
330
1F
100
AcDbEntity
  8
Sichtbare_Kanten_TC_020513_DIN_
  6
Continuous
 62
     7
100
AcDbLine
 10
53.1108825571336
 20
107.310171929891
 30
0.0
 11
53.7108825571336
 21
106.963761768378
 31
0.0
  0
LINE
  5
201
330
1F
100
AcDbEntity
  8
Sichtbare_Kanten_TC_020513_DIN_
  6
Continuous
 62
     7
100
AcDbLine
 10
53.7108825571336
 20
106.232821660702
 30
0.0
 11
53.1108825571336
 21
105.886411499188
 31
0.0
  0
LINE
  5
202
330
1F
100
AcDbEntity
  8
Sichtbare_Kanten_TC_020513_DIN_
  6
Continuous
 62
     7
100
AcDbLine
 10
145.610882557134
 20
106.232821660702
 30
0.0
 11
146.210882557134
 21
105.886411499188
 31
0.0
  0
LINE
  5
203
330
1F
100
AcDbEntity
  8
Sichtbare_Kanten_TC_020513_DIN_
  6
Continuous
 62
     7
100
AcDbLine
 10
53.9108825571336
 20
106.617351606864
 30
0.0
 11
53.9108825571336
 21
106.579231822216
 31
0.0
  0
LINE
  5
204
330
1F
100
AcDbEntity
  8
Sichtbare_Kanten_TC_020513_DIN_
  6
Continuous
 62
     7
100
AcDbLine
 10
145.410882557134
 20
106.617351606864
 30
0.0
 11
145.410882557134
 21
106.579231822216
 31
0.0
  0
LINE
  5
205
330
1F
100
AcDbEntity
  8
Sichtbare_Kanten_TC_020513_DIN_
  6
Continuous
 62
     7
100
AcDbLine
 10
146.210882557134
 20
109.810171929891
 30
0.0
 11
145.610882557134
 21
109.463761768378
 31
0.0
  0
LINE
  5
206
330
1F
100
AcDbEntity
  8
Sichtbare_Kanten_TC_020513_DIN_
  6
Continuous
 62
     7
100
AcDbLine
 10
53.1108825571336
 20
109.810171929891
 30
0.0
 11
53.7108825571336
 21
109.463761768378
 31
0.0
  0
LINE
  5
207
330
1F
100
AcDbEntity
  8
Sichtbare_Kanten_TC_020513_DIN_
  6
Continuous
 62
     7
100
AcDbLine
 10
53.7108825571336
 20
108.732821660702
 30
0.0
 11
53.1108825571336
 21
108.386411499188
 31
0.0
  0
LINE
  5
208
330
1F
100
AcDbEntity
  8
Sichtbare_Kanten_TC_020513_DIN_
  6
Continuous
 62
     7
100
AcDbLine
 10
145.610882557134
 20
108.732821660702
 30
0.0
 11
146.210882557134
 21
108.386411499188
 31
0.0
  0
LINE
  5
209
330
1F
100
AcDbEntity
  8
Sichtbare_Kanten_TC_020513_DIN_
  6
Continuous
 62
     7
100
AcDbLine
 10
52.9108825571336
 20
107.656582091405
 30
0.0
 11
52.9108825571336
 21
105.540001337674
 31
0.0
  0
LINE
  5
20A
330
1F
100
AcDbEntity
  8
Sichtbare_Kanten_TC_020513_DIN_
  6
Continuous
 62
     7
100
AcDbLine
 10
52.9108825571336
 20
105.156582091405
 30
0.0
 11
52.9108825571336
 21
103.040001337674
 31
0.0
  0
LINE
  5
20B
330
1F
100
AcDbEntity
  8
Sichtbare_Kanten_TC_020513_DIN_
  6
Continuous
 62
     7
100
AcDbLine
 10
52.9108825571336
 20
102.656582091405
 30
0.0
 11
52.9108825571336
 21
100.540001337674
 31
0.0
  0
LINE
  5
20C
330
1F
100
AcDbEntity
  8
Sichtbare_Kanten_TC_020513_DIN_
  6
Continuous
 62
     7
100
AcDbLine
 10
52.9108825571336
 20
100.156582091405
 30
0.0
 11
52.9108825571336
 21
98.0400013376742
 31
0.0
  0
LINE
  5
20D
330
1F
100
AcDbEntity
  8
Sichtbare_Kanten_TC_020513_DIN_
  6
Continuous
 62
     7
100
AcDbLine
 10
146.410882557134
 20
98.0400013376742
 30
0.0
 11
146.410882557134
 21
100.156582091405
 31
0.0
  0
LINE
  5
20E
330
1F
100
AcDbEntity
  8
Sichtbare_Kanten_TC_020513_DIN_
  6
Continuous
 62
     7
100
AcDbLine
 10
146.410882557134
 20
100.540001337674
 30
0.0
 11
146.410882557134
 21
102.656582091405
 31
0.0
  0
LINE
  5
20F
330
1F
100
AcDbEntity
  8
Sichtbare_Kanten_TC_020513_DIN_
  6
Continuous
 62
     7
100
AcDbLine
 10
146.410882557134
 20
103.040001337674
 30
0.0
 11
146.410882557134
 21
105.156582091405
 31
0.0
  0
LINE
  5
210
330
1F
100
AcDbEntity
  8
Sichtbare_Kanten_TC_020513_DIN_
  6
Continuous
 62
     7
100
AcDbLine
 10
146.410882557134
 20
105.540001337674
 30
0.0
 11
146.410882557134
 21
107.656582091405
 31
0.0
  0
LINE
  5
211
330
1F
100
AcDbEntity
  8
Sichtbare_Kanten_TC_020513_DIN_
  6
Continuous
 62
     7
100
AcDbLine
 10
52.9108825571336
 20
110.156582091405
 30
0.0
 11
52.9108825571336
 21
108.040001337674
 31
0.0
  0
LINE
  5
212
330
1F
100
AcDbEntity
  8
Sichtbare_Kanten_TC_020513_DIN_
  6
Continuous
 62
     7
100
AcDbLine
 10
53.9108825571336
 20
109.117351606864
 30
0.0
 11
53.9108825571336
 21
109.079231822216
 31
0.0
  0
LINE
  5
213
330
1F
100
AcDbEntity
  8
Sichtbare_Kanten_TC_020513_DIN_
  6
Continuous
 62
     7
100
AcDbLine
 10
145.410882557134
 20
109.117351606864
 30
0.0
 11
145.410882557134
 21
109.079231822216
 31
0.0
  0
LINE
  5
214
330
1F
100
AcDbEntity
  8
Sichtbare_Kanten_TC_020513_DIN_
  6
Continuous
 62
     7
100
AcDbLine
 10
146.410882557134
 20
108.040001337674
 30
0.0
 11
146.410882557134
 21
110.156582091405
 31
0.0
  0
LINE
  5
215
330
1F
100
AcDbEntity
  8
Sichtbare_Kanten_TC_020513_DIN_
  6
Continuous
 62
     7
100
AcDbLine
 10
134.146878561023
 20
158.59829171454
 30
0.0
 11
65.1748865532443
 21
158.59829171454
 31
0.0
  0
LINE
  5
216
330
1F
100
AcDbEntity
  8
Sichtbare_Kanten_TC_020513_DIN_
  6
Continuous
 62
     7
100
AcDbLine
 10
63.1440333294728
 20
158.59829171454
 30
0.0
 11
65.1748865532443
 21
158.59829171454
 31
0.0
  0
LINE
  5
217
330
1F
100
AcDbEntity
  8
Sichtbare_Kanten_TC_020513_DIN_
  6
Continuous
 62
     7
100
AcDbLine
 10
134.146878561023
 20
158.59829171454
 30
0.0
 11
136.177731784794
 21
158.59829171454
 31
0.0
  0
LINE
  5
218
330
1F
100
AcDbEntity
  8
Sichtbare_Kanten_TC_020513_DIN_
  6
Continuous
 62
     7
100
AcDbLine
 10
64.5577421207647
 20
151.09829171454
 30
0.0
 11
134.764022993502
 21
151.09829171454
 31
0.0
  0
LINE
  5
219
330
1F
100
AcDbEntity
  8
Sichtbare_Kanten_TC_020513_DIN_
  6
Continuous
 62
     7
100
AcDbLine
 10
140.406486376174
 20
119.09829171454
 30
0.0
 11
58.9152787380938
 21
119.09829171454
 31
0.0
  0
LINE
  5
21A
330
1F
100
AcDbEntity
  8
Sichtbare_Kanten_TC_020513_DIN_
  6
Continuous
 62
     7
100
AcDbLine
 10
144.171845339641
 20
120.59829171454
 30
0.0
 11
55.1499197746266
 21
120.59829171454
 31
0.0
  0
LINE
  5
21B
330
1F
100
AcDbEntity
  8
Sichtbare_Kanten_TC_020513_DIN_
  6
Continuous
 62
     7
100
AcDbLine
 10
60.2634022151721
 20
149.59829171454
 30
0.0
 11
139.058362899095
 21
149.59829171454
 31
0.0
  0
LINE
  5
21C
330
1F
100
AcDbEntity
  8
Sichtbare_Kanten_TC_020513_DIN_
  6
Continuous
 62
     7
100
AcDbLine
 10
59.204802317424
 20
155.292884425207
 30
0.0
 11
52.9108825571336
 21
119.59829171454
 31
0.0
  0
LINE
  5
21D
330
1F
100
AcDbEntity
  8
Sichtbare_Kanten_TC_020513_DIN_
  6
Continuous
 62
     7
100
AcDbLine
 10
146.410882557134
 20
119.59829171454
 30
0.0
 11
146.014877711064
 21
121.844146798533
 31
0.0
  0
LINE
  5
21E
330
1F
100
AcDbEntity
  8
Sichtbare_Kanten_TC_020513_DIN_
  6
Continuous
 62
     7
100
AcDbLine
 10
58.9108825571336
 20
82.5982917145397
 30
0.0
 11
52.9108825571336
 21
82.5982917145397
 31
0.0
  0
LINE
  5
21F
330
1F
100
AcDbEntity
  8
Sichtbare_Kanten_TC_020513_DIN_
  6
Continuous
 62
     7
100
AcDbLine
 10
146.410882557134
 20
82.5982917145397
 30
0.0
 11
140.410882557134
 21
82.5982917145397
 31
0.0
  0
LINE
  5
220
330
1F
100
AcDbEntity
  8
Sichtbare_Kanten_TC_020513_DIN_
  6
Continuous
 62
     7
100
AcDbLine
 10
146.410882557134
 20
119.59829171454
 30
0.0
 11
140.410882557134
 21
119.073359733384
 31
0.0
  0
LINE
  5
221
330
1F
100
AcDbEntity
  8
Sichtbare_Kanten_TC_020513_DIN_
  6
Continuous
 62
     7
100
AcDbLine
 10
52.9108825571336
 20
119.59829171454
 30
0.0
 11
58.9108825571336
 21
119.073359733384
 31
0.0
  0
LINE
  5
222
330
1F
100
AcDbEntity
  8
Sichtbare_Kanten_TC_020513_DIN_
  6
Continuous
 62
     7
100
AcDbLine
 10
52.9108825571336
 20
105.540001337674
 30
0.0
 11
52.9108825571336
 21
105.156582091405
 31
0.0
  0
LINE
  5
223
330
1F
100
AcDbEntity
  8
Sichtbare_Kanten_TC_020513_DIN_
  6
Continuous
 62
     7
100
AcDbLine
 10
52.9108825571336
 20
103.040001337674
 30
0.0
 11
52.9108825571336
 21
102.656582091405
 31
0.0
  0
LINE
  5
224
330
1F
100
AcDbEntity
  8
Sichtbare_Kanten_TC_020513_DIN_
  6
Continuous
 62
     7
100
AcDbLine
 10
52.9108825571336
 20
100.540001337674
 30
0.0
 11
52.9108825571336
 21
100.156582091405
 31
0.0
  0
LINE
  5
225
330
1F
100
AcDbEntity
  8
Sichtbare_Kanten_TC_020513_DIN_
  6
Continuous
 62
     7
100
AcDbLine
 10
52.9108825571336
 20
98.0400013376742
 30
0.0
 11
52.9108825571336
 21
97.6565820914051
 31
0.0
  0
LINE
  5
226
330
1F
100
AcDbEntity
  8
Sichtbare_Kanten_TC_020513_DIN_
  6
Continuous
 62
     7
100
AcDbLine
 10
52.9108825571336
 20
95.5400013376742
 30
0.0
 11
52.9108825571336
 21
82.5982917145397
 31
0.0
  0
LINE
  5
227
330
1F
100
AcDbEntity
  8
Sichtbare_Kanten_TC_020513_DIN_
  6
Continuous
 62
     7
100
AcDbLine
 10
52.9108825571336
 20
119.59829171454
 30
0.0
 11
52.9108825571336
 21
110.156582091405
 31
0.0
  0
LINE
  5
228
330
1F
100
AcDbEntity
  8
Sichtbare_Kanten_TC_020513_DIN_
  6
Continuous
 62
     7
100
AcDbLine
 10
52.9108825571336
 20
108.040001337674
 30
0.0
 11
52.9108825571336
 21
107.656582091405
 31
0.0
  0
LINE
  5
229
330
1F
100
AcDbEntity
  8
Sichtbare_Kanten_TC_020513_DIN_
  6
Continuous
 62
     7
100
AcDbLine
 10
146.410882557134
 20
82.5982917145397
 30
0.0
 11
146.410882557134
 21
95.5400013376742
 31
0.0
  0
LINE
  5
22A
330
1F
100
AcDbEntity
  8
Sichtbare_Kanten_TC_020513_DIN_
  6
Continuous
 62
     7
100
AcDbLine
 10
146.410882557134
 20
97.6565820914051
 30
0.0
 11
146.410882557134
 21
98.0400013376742
 31
0.0
  0
LINE
  5
22B
330
1F
100
AcDbEntity
  8
Sichtbare_Kanten_TC_020513_DIN_
  6
Continuous
 62
     7
100
AcDbLine
 10
146.410882557134
 20
100.156582091405
 30
0.0
 11
146.410882557134
 21
100.540001337674
 31
0.0
  0
LINE
  5
22C
330
1F
100
AcDbEntity
  8
Sichtbare_Kanten_TC_020513_DIN_
  6
Continuous
 62
     7
100
AcDbLine
 10
146.410882557134
 20
102.656582091405
 30
0.0
 11
146.410882557134
 21
103.040001337674
 31
0.0
  0
LINE
  5
22D
330
1F
100
AcDbEntity
  8
Sichtbare_Kanten_TC_020513_DIN_
  6
Continuous
 62
     7
100
AcDbLine
 10
146.410882557134
 20
105.156582091405
 30
0.0
 11
146.410882557134
 21
105.540001337674
 31
0.0
  0
LINE
  5
22E
330
1F
100
AcDbEntity
  8
Sichtbare_Kanten_TC_020513_DIN_
  6
Continuous
 62
     7
100
AcDbLine
 10
146.410882557134
 20
107.656582091405
 30
0.0
 11
146.410882557134
 21
108.040001337674
 31
0.0
  0
LINE
  5
22F
330
1F
100
AcDbEntity
  8
Sichtbare_Kanten_TC_020513_DIN_
  6
Continuous
 62
     7
100
AcDbLine
 10
146.410882557134
 20
110.156582091405
 30
0.0
 11
146.410882557134
 21
119.59829171454
 31
0.0
  0
LINE
  5
230
330
1F
100
AcDbEntity
  8
Sichtbare_Kanten_TC_020513_DIN_
  6
Continuous
 62
     7
100
AcDbLine
 10
140.840278560303
 20
151.190756886053
 30
0.0
 11
140.116962796843
 21
155.292884425207
 31
0.0
  0
LINE
  5
231
330
1F
100
AcDbEntity
  8
Sichtbare_Kanten_TC_020513_DIN_
  6
Continuous
 62
     7
100
AcDbLine
 10
142.770063087392
 20
128.548193916781
 30
0.0
 11
144.171845339641
 21
120.59829171454
 31
0.0
  0
LINE
  5
232
330
1F
100
AcDbEntity
  8
Sichtbare_Kanten_TC_020513_DIN_
  6
Continuous
 62
     7
100
AcDbLine
 10
55.1499197746266
 20
120.59829171454
 30
0.0
 11
60.2634022151721
 21
149.59829171454
 31
0.0
  0
LINE
  5
233
330
1F
100
AcDbEntity
  8
Sichtbare_Kanten_TC_020513_DIN_
  6
Continuous
 62
     7
100
AcDbLine
 10
139.058362899095
 20
149.59829171454
 30
0.0
 11
140.084069358865
 21
143.781221316981
 31
0.0
  0
LINE
  5
234
330
1F
100
AcDbEntity
  8
Sichtbare_Kanten_TC_020513_DIN_
  6
Continuous
 62
     7
100
AcDbLine
 10
153.964217619223
 20
160.207017824783
 30
0.0
 11
138.88020376779
 21
157.547299205395
 31
0.0
  0
LINE
  5
235
330
1F
100
AcDbEntity
  8
Sichtbare_Kanten_TC_020513_DIN_
  6
Continuous
 62
     7
100
AcDbLine
 10
161.431089258909
 20
117.860284445259
 30
0.0
 11
146.410882557134
 21
115.211816747918
 31
0.0
  0
LINE
  5
236
330
1F
100
AcDbEntity
  8
Sichtbare_Kanten_TC_020513_DIN_
  6
Continuous
 62
     7
100
AcDbLine
 10
140.246203749543
 20
144.713658658249
 30
0.0
 11
143.241331930999
 21
127.727442655348
 31
0.0
  0
LINE
  5
237
330
1F
100
AcDbEntity
  8
Sichtbare_Kanten_TC_020513_DIN_
  6
Continuous
 62
     7
100
AcDbLine
 10
153.964217619223
 20
160.207017824783
 30
0.0
 11
161.431089258909
 21
117.860284445259
 31
0.0
  0
LINE
  5
238
330
1F
100
AcDbEntity
  8
Sichtbare_Kanten_TC_020513_DIN_
  6
Continuous
 62
     7
100
AcDbLine
 10
140.410882557134
 20
82.5982917145397
 30
0.0
 11
58.9108825571336
 21
82.5982917145397
 31
0.0
  0
LINE
  5
239
330
1F
100
AcDbEntity
  8
Sichtbare_Kanten_TC_020513_DIN_
  6
Continuous
 62
     7
100
AcDbLine
 10
99.6608825571336
 20
89.0982917145397
 30
0.0
 11
98.9108825571336
 21
90.1340115903304
 31
0.0
  0
LINE
  5
23A
330
1F
100
AcDbEntity
  8
Sichtbare_Kanten_TC_020513_DIN_
  6
Continuous
 62
     7
100
AcDbLine
 10
98.9108825571336
 20
90.1340115903304
 30
0.0
 11
98.9108825571336
 21
87.4737723502976
 31
0.0
  0
LINE
  5
23B
330
1F
100
AcDbEntity
  8
Sichtbare_Kanten_TC_020513_DIN_
  6
Continuous
 62
     7
100
AcDbLine
 10
98.4108825571336
 20
87.4737723502976
 30
0.0
 11
98.4108825571336
 21
90.9055033864741
 31
0.0
  0
LINE
  5
23C
330
1F
100
AcDbEntity
  8
Sichtbare_Kanten_TC_020513_DIN_
  6
Continuous
 62
     7
100
AcDbLine
 10
98.8633684634607
 20
91.0521303203536
 30
0.0
 11
99.6608825571336
 21
89.9507953896332
 31
0.0
  0
LINE
  5
23D
330
1F
100
AcDbEntity
  8
Sichtbare_Kanten_TC_020513_DIN_
  6
Continuous
 62
     7
100
AcDbLine
 10
99.6608825571336
 20
89.9507953896332
 30
0.0
 11
100.458396650807
 21
91.0521303203536
 31
0.0
  0
LINE
  5
23E
330
1F
100
AcDbEntity
  8
Sichtbare_Kanten_TC_020513_DIN_
  6
Continuous
 62
     7
100
AcDbLine
 10
100.910882557134
 20
90.9055033864741
 30
0.0
 11
100.910882557134
 21
86.2910800426052
 31
0.0
  0
LINE
  5
23F
330
1F
100
AcDbEntity
  8
Sichtbare_Kanten_TC_020513_DIN_
  6
Continuous
 62
     7
100
AcDbLine
 10
100.410882557134
 20
86.2910800426052
 30
0.0
 11
100.410882557134
 21
90.1340115903304
 31
0.0
  0
LINE
  5
240
330
1F
100
AcDbEntity
  8
Sichtbare_Kanten_TC_020513_DIN_
  6
Continuous
 62
     7
100
AcDbLine
 10
100.410882557134
 20
90.1340115903304
 30
0.0
 11
99.6608825571336
 21
89.0982917145397
 31
0.0
  0
LINE
  5
241
330
1F
100
AcDbEntity
  8
Sichtbare_Kanten_TC_020513_DIN_
  6
Continuous
 62
     7
100
AcDbLine
 10
97.8608825571336
 20
90.2997341557048
 30
0.0
 11
97.8608825571336
 21
87.0412402545246
 31
0.0
  0
LINE
  5
242
330
1F
100
AcDbEntity
  8
Sichtbare_Kanten_TC_020513_DIN_
  6
Continuous
 62
     7
100
AcDbLine
 10
97.8608825571336
 20
87.0412402545246
 30
0.0
 11
99.785813170506
 21
85.9307033621943
 31
0.0
  0
LINE
  5
243
330
1F
100
AcDbEntity
  8
Sichtbare_Kanten_TC_020513_DIN_
  6
Continuous
 62
     7
100
AcDbLine
 10
99.5359519437612
 20
85.49761056917
 30
0.0
 11
97.4859519437612
 21
86.6803028768623
 31
0.0
  0
LINE
  5
244
330
1F
100
AcDbEntity
  8
Sichtbare_Kanten_TC_020513_DIN_
  6
Continuous
 62
     7
100
AcDbLine
 10
97.3608825571336
 20
86.8968492733745
 30
0.0
 11
97.3608825571336
 21
90.2997341557048
 31
0.0
  0
LINE
  5
245
330
1F
100
AcDbEntity
  8
Sichtbare_Kanten_TC_020513_DIN_
  6
Continuous
 62
     7
100
AcDbLine
 10
93.1608825571336
 20
88.5982917145397
 30
0.0
 11
99.6608825571336
 21
92.3482917145397
 31
0.0
  0
LINE
  5
246
330
1F
100
AcDbEntity
  8
Sichtbare_Kanten_TC_020513_DIN_
  6
Continuous
 62
     7
100
AcDbLine
 10
99.6608825571336
 20
92.3482917145397
 30
0.0
 11
106.160882557134
 21
88.5982917145397
 31
0.0
  0
LINE
  5
247
330
1F
100
AcDbEntity
  8
Sichtbare_Kanten_TC_020513_DIN_
  6
Continuous
 62
     7
100
AcDbLine
 10
106.160882557134
 20
88.5982917145397
 30
0.0
 11
99.6608825571336
 21
84.8482917145397
 31
0.0
  0
LINE
  5
248
330
1F
100
AcDbEntity
  8
Sichtbare_Kanten_TC_020513_DIN_
  6
Continuous
 62
     7
100
AcDbLine
 10
99.6608825571336
 20
84.8482917145397
 30
0.0
 11
93.1608825571336
 21
88.5982917145397
 31
0.0
  0
LINE
  5
249
330
1F
100
AcDbEntity
  8
Sichtbare_Kanten_TC_020513_DIN_
  6
Continuous
 62
     7
100
AcDbLine
 10
99.6608825571336
 20
92.0596699641588
 30
0.0
 11
93.6611602577937
 21
88.5982917145397
 31
0.0
  0
LINE
  5
24A
330
1F
100
AcDbEntity
  8
Sichtbare_Kanten_TC_020513_DIN_
  6
Continuous
 62
     7
100
AcDbLine
 10
105.660604856474
 20
88.5982917145397
 30
0.0
 11
99.6608825571336
 21
92.0596699641588
 31
0.0
  0
LINE
  5
24B
330
1F
100
AcDbEntity
  8
Sichtbare_Kanten_TC_020513_DIN_
  6
Continuous
 62
     7
100
AcDbLine
 10
99.6608825571336
 20
85.1369134649205
 30
0.0
 11
105.660604856474
 21
88.5982917145397
 31
0.0
  0
LINE
  5
24C
330
1F
100
AcDbEntity
  8
Sichtbare_Kanten_TC_020513_DIN_
  6
Continuous
 62
     7
100
AcDbLine
 10
93.6611602577937
 20
88.5982917145397
 30
0.0
 11
99.6608825571336
 21
85.1369134649205
 31
0.0
  0
LINE
  5
24D
330
1F
100
AcDbEntity
  8
Sichtbare_Kanten_TC_020513_DIN_
  6
Continuous
 62
     7
100
AcDbLine
 10
96.8608825571336
 20
89.7228110787818
 30
0.0
 11
96.8608825571336
 21
87.4737723502976
 31
0.0
  0
LINE
  5
24E
330
1F
100
AcDbEntity
  8
Sichtbare_Kanten_TC_020513_DIN_
  6
Continuous
 62
     7
100
AcDbLine
 10
96.3608825571336
 20
87.4737723502976
 30
0.0
 11
96.3608825571336
 21
89.7228110787818
 31
0.0
  0
LINE
  5
24F
330
1F
100
AcDbEntity
  8
Sichtbare_Kanten_TC_020513_DIN_
  6
Continuous
 62
     7
100
AcDbLine
 10
101.785813170506
 20
90.5451267060631
 30
0.0
 11
102.785813170506
 21
89.96820362914
 31
0.0
  0
LINE
  5
250
330
1F
100
AcDbEntity
  8
Sichtbare_Kanten_TC_020513_DIN_
  6
Continuous
 62
     7
100
AcDbLine
 10
102.535951943761
 20
89.5351108361157
 30
0.0
 11
101.910882557134
 21
89.8957277899394
 31
0.0
  0
LINE
  5
251
330
1F
100
AcDbEntity
  8
Sichtbare_Kanten_TC_020513_DIN_
  6
Continuous
 62
     7
100
AcDbLine
 10
101.910882557134
 20
89.8957277899394
 30
0.0
 11
101.910882557134
 21
88.8482917145397
 31
0.0
  0
LINE
  5
252
330
1F
100
AcDbEntity
  8
Sichtbare_Kanten_TC_020513_DIN_
  6
Continuous
 62
     7
100
AcDbLine
 10
101.910882557134
 20
88.8482917145397
 30
0.0
 11
102.660882557134
 21
88.8482917145397
 31
0.0
  0
LINE
  5
253
330
1F
100
AcDbEntity
  8
Sichtbare_Kanten_TC_020513_DIN_
  6
Continuous
 62
     7
100
AcDbLine
 10
102.660882557134
 20
88.3482917145396
 30
0.0
 11
101.910882557134
 21
88.3482917145396
 31
0.0
  0
LINE
  5
254
330
1F
100
AcDbEntity
  8
Sichtbare_Kanten_TC_020513_DIN_
  6
Continuous
 62
     7
100
AcDbLine
 10
101.910882557134
 20
88.3482917145396
 30
0.0
 11
101.910882557134
 21
87.3008556391399
 31
0.0
  0
LINE
  5
255
330
1F
100
AcDbEntity
  8
Sichtbare_Kanten_TC_020513_DIN_
  6
Continuous
 62
     7
100
AcDbLine
 10
101.910882557134
 20
87.3008556391399
 30
0.0
 11
102.535951943761
 21
87.6614725929635
 31
0.0
  0
LINE
  5
256
330
1F
100
AcDbEntity
  8
Sichtbare_Kanten_TC_020513_DIN_
  6
Continuous
 62
     7
100
AcDbLine
 10
102.785813170506
 20
87.2283797999393
 30
0.0
 11
101.785813170506
 21
86.6514567230162
 31
0.0
  0
LINE
  5
257
330
1F
100
AcDbEntity
  8
Sichtbare_Kanten_TC_020513_DIN_
  6
Continuous
 62
     7
100
AcDbLine
 10
101.410882557134
 20
86.8680031195283
 30
0.0
 11
101.410882557134
 21
90.328580309551
 31
0.0
  0
ARC
  5
258
330
1F
100
AcDbEntity
  8
Sichtbare_Kanten_TC_020513_DIN_
  6
Continuous
 62
     7
100
AcDbCircle
 10
252.872982382724
 20
154.59829171454
 30
0.0
 40
4.0
100
AcDbArc
 50
0.0
 51
90.0
  0
ARC
  5
259
330
1F
100
AcDbEntity
  8
Sichtbare_Kanten_TC_020513_DIN_
  6
Continuous
 62
     7
100
AcDbCircle
 10
217.872982382724
 20
154.59829171454
 30
0.0
 40
4.0
100
AcDbArc
 50
90.0
 51
180.0
  0
ARC
  5
25A
330
1F
100
AcDbEntity
  8
Sichtbare_Kanten_TC_020513_DIN_
  6
Continuous
 62
     7
100
AcDbCircle
 10
214.272982382722
 20
97.6565820914051
 30
0.0
 40
0.3999999999990109
100
AcDbArc
 50
180.0
 51
240.0000000001196
  0
ARC
  5
25B
330
1F
100
AcDbEntity
  8
Sichtbare_Kanten_TC_020513_DIN_
  6
Continuous
 62
     7
100
AcDbCircle
 10
214.472982382723
 20
96.5792318222155
 30
0.0
 40
0.3999999999995341
100
AcDbArc
 50
299.9999999998768
 51
0.0
  0
ARC
  5
25C
330
1F
100
AcDbEntity
  8
Sichtbare_Kanten_TC_020513_DIN_
  6
Continuous
 62
     7
100
AcDbCircle
 10
214.472982382723
 20
96.6173516068638
 30
0.0
 40
0.4000000000000057
100
AcDbArc
 50
0.0
 51
60.00000000012217
  0
ARC
  5
25D
330
1F
100
AcDbEntity
  8
Sichtbare_Kanten_TC_020513_DIN_
  6
Continuous
 62
     7
100
AcDbCircle
 10
214.272982382722
 20
95.5400013376742
 30
0.0
 40
0.39999999999952
100
AcDbArc
 50
119.9999999998733
 51
180.0
  0
ARC
  5
25E
330
1F
100
AcDbEntity
  8
Sichtbare_Kanten_TC_020513_DIN_
  6
Continuous
 62
     7
100
AcDbCircle
 10
256.472982382722
 20
97.6565820914051
 30
0.0
 40
0.3999999999999311
100
AcDbArc
 50
300.0000000000039
 51
0.0
  0
ARC
  5
25F
330
1F
100
AcDbEntity
  8
Sichtbare_Kanten_TC_020513_DIN_
  6
Continuous
 62
     7
100
AcDbCircle
 10
256.472982382722
 20
95.5400013376742
 30
0.0
 40
0.4000000000010004
100
AcDbArc
 50
0.0
 51
60.00000000000331
  0
ARC
  5
260
330
1F
100
AcDbEntity
  8
Sichtbare_Kanten_TC_020513_DIN_
  6
Continuous
 62
     7
100
AcDbCircle
 10
256.272982382722
 20
96.5792318222155
 30
0.0
 40
0.3999999999989825
100
AcDbArc
 50
180.0
 51
240.0000000001302
  0
ARC
  5
261
330
1F
100
AcDbEntity
  8
Sichtbare_Kanten_TC_020513_DIN_
  6
Continuous
 62
     7
100
AcDbCircle
 10
256.272982382722
 20
96.6173516068638
 30
0.0
 40
0.3999999999994934
100
AcDbArc
 50
119.9999999998708
 51
180.0
  0
ARC
  5
262
330
1F
100
AcDbEntity
  8
Sichtbare_Kanten_TC_020513_DIN_
  6
Continuous
 62
     7
100
AcDbCircle
 10
214.272982382722
 20
100.156582091405
 30
0.0
 40
0.3999999999990109
100
AcDbArc
 50
180.0
 51
240.0000000001125
  0
ARC
  5
263
330
1F
100
AcDbEntity
  8
Sichtbare_Kanten_TC_020513_DIN_
  6
Continuous
 62
     7
100
AcDbCircle
 10
214.272982382722
 20
98.0400013376742
 30
0.0
 40
0.39999999999952
100
AcDbArc
 50
119.9999999998733
 51
180.0
  0
ARC
  5
264
330
1F
100
AcDbEntity
  8
Sichtbare_Kanten_TC_020513_DIN_
  6
Continuous
 62
     7
100
AcDbCircle
 10
214.472982382723
 20
99.0792318222155
 30
0.0
 40
0.3999999999995341
100
AcDbArc
 50
299.9999999998768
 51
0.0
  0
ARC
  5
265
330
1F
100
AcDbEntity
  8
Sichtbare_Kanten_TC_020513_DIN_
  6
Continuous
 62
     7
100
AcDbCircle
 10
214.472982382723
 20
99.1173516068638
 30
0.0
 40
0.4000000000000057
100
AcDbArc
 50
0.0
 51
60.00000000012217
  0
ARC
  5
266
330
1F
100
AcDbEntity
  8
Sichtbare_Kanten_TC_020513_DIN_
  6
Continuous
 62
     7
100
AcDbCircle
 10
214.272982382722
 20
102.656582091405
 30
0.0
 40
0.3999999999990109
100
AcDbArc
 50
180.0
 51
240.0000000001409
  0
ARC
  5
267
330
1F
100
AcDbEntity
  8
Sichtbare_Kanten_TC_020513_DIN_
  6
Continuous
 62
     7
100
AcDbCircle
 10
214.272982382722
 20
100.540001337674
 30
0.0
 40
0.3999999999996922
100
AcDbArc
 50
119.999999999859
 51
180.0
  0
ARC
  5
268
330
1F
100
AcDbEntity
  8
Sichtbare_Kanten_TC_020513_DIN_
  6
Continuous
 62
     7
100
AcDbCircle
 10
214.472982382723
 20
101.579231822216
 30
0.0
 40
0.3999999999997064
100
AcDbArc
 50
299.9999999998626
 51
0.0
  0
ARC
  5
269
330
1F
100
AcDbEntity
  8
Sichtbare_Kanten_TC_020513_DIN_
  6
Continuous
 62
     7
100
AcDbCircle
 10
214.472982382723
 20
101.617351606864
 30
0.0
 40
0.4000000000000057
100
AcDbArc
 50
0.0
 51
60.00000000013743
  0
ARC
  5
26A
330
1F
100
AcDbEntity
  8
Sichtbare_Kanten_TC_020513_DIN_
  6
Continuous
 62
     7
100
AcDbCircle
 10
214.272982382722
 20
105.156582091405
 30
0.0
 40
0.3999999999990109
100
AcDbArc
 50
180.0
 51
240.0000000001409
  0
ARC
  5
26B
330
1F
100
AcDbEntity
  8
Sichtbare_Kanten_TC_020513_DIN_
  6
Continuous
 62
     7
100
AcDbCircle
 10
214.272982382722
 20
103.040001337674
 30
0.0
 40
0.3999999999996922
100
AcDbArc
 50
119.999999999859
 51
180.0
  0
ARC
  5
26C
330
1F
100
AcDbEntity
  8
Sichtbare_Kanten_TC_020513_DIN_
  6
Continuous
 62
     7
100
AcDbCircle
 10
214.472982382723
 20
104.079231822216
 30
0.0
 40
0.3999999999997064
100
AcDbArc
 50
299.9999999998626
 51
0.0
  0
ARC
  5
26D
330
1F
100
AcDbEntity
  8
Sichtbare_Kanten_TC_020513_DIN_
  6
Continuous
 62
     7
100
AcDbCircle
 10
214.472982382723
 20
104.117351606864
 30
0.0
 40
0.3999999999990109
100
AcDbArc
 50
0.0
 51
60.00000000013743
  0
ARC
  5
26E
330
1F
100
AcDbEntity
  8
Sichtbare_Kanten_TC_020513_DIN_
  6
Continuous
 62
     7
100
AcDbCircle
 10
214.272982382722
 20
107.656582091405
 30
0.0
 40
0.3999999999990109
100
AcDbArc
 50
180.0
 51
240.0000000001409
  0
ARC
  5
26F
330
1F
100
AcDbEntity
  8
Sichtbare_Kanten_TC_020513_DIN_
  6
Continuous
 62
     7
100
AcDbCircle
 10
214.272982382722
 20
105.540001337674
 30
0.0
 40
0.3999999999996922
100
AcDbArc
 50
119.999999999859
 51
180.0
  0
ARC
  5
270
330
1F
100
AcDbEntity
  8
Sichtbare_Kanten_TC_020513_DIN_
  6
Continuous
 62
     7
100
AcDbCircle
 10
214.472982382723
 20
106.579231822216
 30
0.0
 40
0.3999999999997064
100
AcDbArc
 50
299.9999999998626
 51
0.0
  0
ARC
  5
271
330
1F
100
AcDbEntity
  8
Sichtbare_Kanten_TC_020513_DIN_
  6
Continuous
 62
     7
100
AcDbCircle
 10
214.472982382723
 20
106.617351606864
 30
0.0
 40
0.3999999999990109
100
AcDbArc
 50
0.0
 51
60.00000000013743
  0
ARC
  5
272
330
1F
100
AcDbEntity
  8
Sichtbare_Kanten_TC_020513_DIN_
  6
Continuous
 62
     7
100
AcDbCircle
 10
214.272982382722
 20
110.156582091405
 30
0.0
 40
0.3999999999990109
100
AcDbArc
 50
180.0
 51
240.0000000001409
  0
ARC
  5
273
330
1F
100
AcDbEntity
  8
Sichtbare_Kanten_TC_020513_DIN_
  6
Continuous
 62
     7
100
AcDbCircle
 10
214.272982382722
 20
108.040001337674
 30
0.0
 40
0.3999999999996922
100
AcDbArc
 50
119.999999999859
 51
180.0
  0
ARC
  5
274
330
1F
100
AcDbEntity
  8
Sichtbare_Kanten_TC_020513_DIN_
  6
Continuous
 62
     7
100
AcDbCircle
 10
214.472982382723
 20
109.079231822216
 30
0.0
 40
0.3999999999997064
100
AcDbArc
 50
299.9999999998626
 51
0.0
  0
ARC
  5
275
330
1F
100
AcDbEntity
  8
Sichtbare_Kanten_TC_020513_DIN_
  6
Continuous
 62
     7
100
AcDbCircle
 10
214.472982382723
 20
109.117351606864
 30
0.0
 40
0.3999999999990109
100
AcDbArc
 50
0.0
 51
60.00000000013743
  0
ARC
  5
276
330
1F
100
AcDbEntity
  8
Sichtbare_Kanten_TC_020513_DIN_
  6
Continuous
 62
     7
100
AcDbCircle
 10
256.472982382722
 20
100.156582091405
 30
0.0
 40
0.3999999999999311
100
AcDbArc
 50
300.0000000000039
 51
0.0
  0
ARC
  5
277
330
1F
100
AcDbEntity
  8
Sichtbare_Kanten_TC_020513_DIN_
  6
Continuous
 62
     7
100
AcDbCircle
 10
256.472982382722
 20
98.0400013376742
 30
0.0
 40
0.4000000000010004
100
AcDbArc
 50
0.0
 51
60.00000000000331
  0
ARC
  5
278
330
1F
100
AcDbEntity
  8
Sichtbare_Kanten_TC_020513_DIN_
  6
Continuous
 62
     7
100
AcDbCircle
 10
256.272982382722
 20
99.0792318222155
 30
0.0
 40
0.3999999999989825
100
AcDbArc
 50
180.0
 51
240.0000000001302
  0
ARC
  5
279
330
1F
100
AcDbEntity
  8
Sichtbare_Kanten_TC_020513_DIN_
  6
Continuous
 62
     7
100
AcDbCircle
 10
256.272982382722
 20
99.1173516068638
 30
0.0
 40
0.3999999999994934
100
AcDbArc
 50
119.9999999998708
 51
180.0
  0
ARC
  5
27A
330
1F
100
AcDbEntity
  8
Sichtbare_Kanten_TC_020513_DIN_
  6
Continuous
 62
     7
100
AcDbCircle
 10
256.472982382722
 20
102.656582091405
 30
0.0
 40
0.4000000000001896
100
AcDbArc
 50
299.9999999999825
 51
0.0
  0
ARC
  5
27B
330
1F
100
AcDbEntity
  8
Sichtbare_Kanten_TC_020513_DIN_
  6
Continuous
 62
     7
100
AcDbCircle
 10
256.472982382722
 20
100.540001337674
 30
0.0
 40
0.4000000000010004
100
AcDbArc
 50
0.0
 51
60.00000000001756
  0
ARC
  5
27C
330
1F
100
AcDbEntity
  8
Sichtbare_Kanten_TC_020513_DIN_
  6
Continuous
 62
     7
100
AcDbCircle
 10
256.272982382722
 20
101.579231822216
 30
0.0
 40
0.3999999999989825
100
AcDbArc
 50
180.0
 51
240.0000000001445
  0
ARC
  5
27D
330
1F
100
AcDbEntity
  8
Sichtbare_Kanten_TC_020513_DIN_
  6
Continuous
 62
     7
100
AcDbCircle
 10
256.272982382722
 20
101.617351606864
 30
0.0
 40
0.399999999999678
100
AcDbArc
 50
119.9999999998555
 51
180.0
  0
ARC
  5
27E
330
1F
100
AcDbEntity
  8
Sichtbare_Kanten_TC_020513_DIN_
  6
Continuous
 62
     7
100
AcDbCircle
 10
256.472982382722
 20
105.156582091405
 30
0.0
 40
0.4000000000006728
100
AcDbArc
 50
300.0000000001023
 51
0.0
  0
ARC
  5
27F
330
1F
100
AcDbEntity
  8
Sichtbare_Kanten_TC_020513_DIN_
  6
Continuous
 62
     7
100
AcDbCircle
 10
256.472982382722
 20
103.040001337674
 30
0.0
 40
0.4000000000010004
100
AcDbArc
 50
0.0
 51
60.00000000001756
  0
ARC
  5
280
330
1F
100
AcDbEntity
  8
Sichtbare_Kanten_TC_020513_DIN_
  6
Continuous
 62
     7
100
AcDbCircle
 10
256.272982382722
 20
104.079231822216
 30
0.0
 40
0.3999999999989825
100
AcDbArc
 50
180.0
 51
240.0000000001445
  0
ARC
  5
281
330
1F
100
AcDbEntity
  8
Sichtbare_Kanten_TC_020513_DIN_
  6
Continuous
 62
     7
100
AcDbCircle
 10
256.272982382722
 20
104.117351606864
 30
0.0
 40
0.399999999999678
100
AcDbArc
 50
119.9999999998555
 51
180.0
  0
ARC
  5
282
330
1F
100
AcDbEntity
  8
Sichtbare_Kanten_TC_020513_DIN_
  6
Continuous
 62
     7
100
AcDbCircle
 10
256.472982382722
 20
107.656582091405
 30
0.0
 40
0.4000000000006728
100
AcDbArc
 50
300.0000000001023
 51
0.0
  0
ARC
  5
283
330
1F
100
AcDbEntity
  8
Sichtbare_Kanten_TC_020513_DIN_
  6
Continuous
 62
     7
100
AcDbCircle
 10
256.472982382722
 20
105.540001337674
 30
0.0
 40
0.4000000000010004
100
AcDbArc
 50
0.0
 51
60.00000000001756
  0
ARC
  5
284
330
1F
100
AcDbEntity
  8
Sichtbare_Kanten_TC_020513_DIN_
  6
Continuous
 62
     7
100
AcDbCircle
 10
256.272982382722
 20
106.579231822216
 30
0.0
 40
0.3999999999989825
100
AcDbArc
 50
180.0
 51
240.0000000001445
  0
ARC
  5
285
330
1F
100
AcDbEntity
  8
Sichtbare_Kanten_TC_020513_DIN_
  6
Continuous
 62
     7
100
AcDbCircle
 10
256.272982382722
 20
106.617351606864
 30
0.0
 40
0.399999999999678
100
AcDbArc
 50
119.9999999998555
 51
180.0
  0
ARC
  5
286
330
1F
100
AcDbEntity
  8
Sichtbare_Kanten_TC_020513_DIN_
  6
Continuous
 62
     7
100
AcDbCircle
 10
256.472982382722
 20
110.156582091405
 30
0.0
 40
0.4000000000006728
100
AcDbArc
 50
300.0000000001023
 51
0.0
  0
ARC
  5
287
330
1F
100
AcDbEntity
  8
Sichtbare_Kanten_TC_020513_DIN_
  6
Continuous
 62
     7
100
AcDbCircle
 10
256.472982382722
 20
108.040001337674
 30
0.0
 40
0.4000000000010004
100
AcDbArc
 50
0.0
 51
60.00000000001756
  0
ARC
  5
288
330
1F
100
AcDbEntity
  8
Sichtbare_Kanten_TC_020513_DIN_
  6
Continuous
 62
     7
100
AcDbCircle
 10
256.272982382722
 20
109.079231822216
 30
0.0
 40
0.3999999999989825
100
AcDbArc
 50
180.0
 51
240.0000000001445
  0
ARC
  5
289
330
1F
100
AcDbEntity
  8
Sichtbare_Kanten_TC_020513_DIN_
  6
Continuous
 62
     7
100
AcDbCircle
 10
256.272982382722
 20
109.117351606864
 30
0.0
 40
0.399999999999678
100
AcDbArc
 50
119.9999999998555
 51
180.0
  0
ARC
  5
28A
330
1F
100
AcDbEntity
  8
Sichtbare_Kanten_TC_020513_DIN_
  6
Continuous
 62
     7
100
AcDbCircle
 10
53.3108825571336
 20
97.6565820914051
 30
0.0
 40
0.4000000000000057
100
AcDbArc
 50
180.0
 51
239.9999999999944
  0
ARC
  5
28B
330
1F
100
AcDbEntity
  8
Sichtbare_Kanten_TC_020513_DIN_
  6
Continuous
 62
     7
100
AcDbCircle
 10
146.010882557134
 20
97.6565820914051
 30
0.0
 40
0.4000000000000173
100
AcDbArc
 50
299.9999999999967
 51
0.0
  0
ARC
  5
28C
330
1F
100
AcDbEntity
  8
Sichtbare_Kanten_TC_020513_DIN_
  6
Continuous
 62
     7
100
AcDbCircle
 10
146.010882557134
 20
95.5400013376742
 30
0.0
 40
0.3999999999999773
100
AcDbArc
 50
0.0
 51
60.00000000000331
  0
ARC
  5
28D
330
1F
100
AcDbEntity
  8
Sichtbare_Kanten_TC_020513_DIN_
  6
Continuous
 62
     7
100
AcDbCircle
 10
53.3108825571336
 20
95.5400013376742
 30
0.0
 40
0.4000000000000244
100
AcDbArc
 50
119.9999999999985
 51
180.0
  0
ARC
  5
28E
330
1F
100
AcDbEntity
  8
Sichtbare_Kanten_TC_020513_DIN_
  6
Continuous
 62
     7
100
AcDbCircle
 10
53.5108825571336
 20
96.5792318222155
 30
0.0
 40
0.4000000000000244
100
AcDbArc
 50
299.9999999999985
 51
0.0
  0
ARC
  5
28F
330
1F
100
AcDbEntity
  8
Sichtbare_Kanten_TC_020513_DIN_
  6
Continuous
 62
     7
100
AcDbCircle
 10
145.810882557134
 20
96.5792318222155
 30
0.0
 40
0.4000000000000057
100
AcDbArc
 50
180.0
 51
240.0000000000033
  0
ARC
  5
290
330
1F
100
AcDbEntity
  8
Sichtbare_Kanten_TC_020513_DIN_
  6
Continuous
 62
     7
100
AcDbCircle
 10
145.810882557134
 20
96.6173516068638
 30
0.0
 40
0.400000000000005
100
AcDbArc
 50
119.9999999999977
 51
180.0
  0
ARC
  5
291
330
1F
100
AcDbEntity
  8
Sichtbare_Kanten_TC_020513_DIN_
  6
Continuous
 62
     7
100
AcDbCircle
 10
53.5108825571336
 20
96.6173516068638
 30
0.0
 40
0.3999999999999986
100
AcDbArc
 50
0.0
 51
60.00000000000053
  0
ARC
  5
292
330
1F
100
AcDbEntity
  8
Sichtbare_Kanten_TC_020513_DIN_
  6
Continuous
 62
     7
100
AcDbCircle
 10
53.3108825571336
 20
100.156582091405
 30
0.0
 40
0.4000000000000057
100
AcDbArc
 50
180.0
 51
239.9999999999944
  0
ARC
  5
293
330
1F
100
AcDbEntity
  8
Sichtbare_Kanten_TC_020513_DIN_
  6
Continuous
 62
     7
100
AcDbCircle
 10
146.010882557134
 20
100.156582091405
 30
0.0
 40
0.3999999999999311
100
AcDbArc
 50
300.0000000000039
 51
0.0
  0
ARC
  5
294
330
1F
100
AcDbEntity
  8
Sichtbare_Kanten_TC_020513_DIN_
  6
Continuous
 62
     7
100
AcDbCircle
 10
146.010882557134
 20
98.0400013376742
 30
0.0
 40
0.3999999999999773
100
AcDbArc
 50
0.0
 51
60.00000000000331
  0
ARC
  5
295
330
1F
100
AcDbEntity
  8
Sichtbare_Kanten_TC_020513_DIN_
  6
Continuous
 62
     7
100
AcDbCircle
 10
53.3108825571336
 20
98.0400013376742
 30
0.0
 40
0.3999999999999382
100
AcDbArc
 50
120.0000000000056
 51
180.0
  0
ARC
  5
296
330
1F
100
AcDbEntity
  8
Sichtbare_Kanten_TC_020513_DIN_
  6
Continuous
 62
     7
100
AcDbCircle
 10
53.5108825571336
 20
99.0792318222155
 30
0.0
 40
0.4000000000000244
100
AcDbArc
 50
299.9999999999985
 51
0.0
  0
ARC
  5
297
330
1F
100
AcDbEntity
  8
Sichtbare_Kanten_TC_020513_DIN_
  6
Continuous
 62
     7
100
AcDbCircle
 10
145.810882557134
 20
99.0792318222155
 30
0.0
 40
0.4000000000000057
100
AcDbArc
 50
180.0
 51
240.0000000000033
  0
ARC
  5
298
330
1F
100
AcDbEntity
  8
Sichtbare_Kanten_TC_020513_DIN_
  6
Continuous
 62
     7
100
AcDbCircle
 10
145.810882557134
 20
99.1173516068638
 30
0.0
 40
0.400000000000005
100
AcDbArc
 50
119.9999999999977
 51
180.0
  0
ARC
  5
299
330
1F
100
AcDbEntity
  8
Sichtbare_Kanten_TC_020513_DIN_
  6
Continuous
 62
     7
100
AcDbCircle
 10
53.5108825571336
 20
99.1173516068638
 30
0.0
 40
0.3999999999999986
100
AcDbArc
 50
0.0
 51
60.00000000000053
  0
ARC
  5
29A
330
1F
100
AcDbEntity
  8
Sichtbare_Kanten_TC_020513_DIN_
  6
Continuous
 62
     7
100
AcDbCircle
 10
53.3108825571336
 20
102.656582091405
 30
0.0
 40
0.4000000000000057
100
AcDbArc
 50
180.0
 51
240.0000000000158
  0
ARC
  5
29B
330
1F
100
AcDbEntity
  8
Sichtbare_Kanten_TC_020513_DIN_
  6
Continuous
 62
     7
100
AcDbCircle
 10
146.010882557134
 20
102.656582091405
 30
0.0
 40
0.4000000000001896
100
AcDbArc
 50
299.9999999999825
 51
0.0
  0
ARC
  5
29C
330
1F
100
AcDbEntity
  8
Sichtbare_Kanten_TC_020513_DIN_
  6
Continuous
 62
     7
100
AcDbCircle
 10
146.010882557134
 20
100.540001337674
 30
0.0
 40
0.3999999999999773
100
AcDbArc
 50
0.0
 51
60.00000000001756
  0
ARC
  5
29D
330
1F
100
AcDbEntity
  8
Sichtbare_Kanten_TC_020513_DIN_
  6
Continuous
 62
     7
100
AcDbCircle
 10
53.3108825571336
 20
100.540001337674
 30
0.0
 40
0.4000000000001967
100
AcDbArc
 50
119.9999999999842
 51
180.0
  0
ARC
  5
29E
330
1F
100
AcDbEntity
  8
Sichtbare_Kanten_TC_020513_DIN_
  6
Continuous
 62
     7
100
AcDbCircle
 10
53.5108825571336
 20
101.579231822216
 30
0.0
 40
0.4000000000001967
100
AcDbArc
 50
299.9999999999842
 51
0.0
  0
ARC
  5
29F
330
1F
100
AcDbEntity
  8
Sichtbare_Kanten_TC_020513_DIN_
  6
Continuous
 62
     7
100
AcDbCircle
 10
145.810882557134
 20
101.579231822216
 30
0.0
 40
0.4000000000000057
100
AcDbArc
 50
180.0
 51
240.0000000000175
  0
ARC
  5
2A0
330
1F
100
AcDbEntity
  8
Sichtbare_Kanten_TC_020513_DIN_
  6
Continuous
 62
     7
100
AcDbCircle
 10
145.810882557134
 20
101.617351606864
 30
0.0
 40
0.4000000000001896
100
AcDbArc
 50
119.9999999999824
 51
180.0
  0
ARC
  5
2A1
330
1F
100
AcDbEntity
  8
Sichtbare_Kanten_TC_020513_DIN_
  6
Continuous
 62
     7
100
AcDbCircle
 10
53.5108825571336
 20
101.617351606864
 30
0.0
 40
0.3999999999999986
100
AcDbArc
 50
0.0
 51
60.0000000000158
  0
ARC
  5
2A2
330
1F
100
AcDbEntity
  8
Sichtbare_Kanten_TC_020513_DIN_
  6
Continuous
 62
     7
100
AcDbCircle
 10
53.3108825571336
 20
105.156582091405
 30
0.0
 40
0.4000000000000057
100
AcDbArc
 50
180.0
 51
240.0000000000158
  0
ARC
  5
2A3
330
1F
100
AcDbEntity
  8
Sichtbare_Kanten_TC_020513_DIN_
  6
Continuous
 62
     7
100
AcDbCircle
 10
146.010882557134
 20
105.156582091405
 30
0.0
 40
0.4000000000001896
100
AcDbArc
 50
299.9999999999825
 51
0.0
  0
ARC
  5
2A4
330
1F
100
AcDbEntity
  8
Sichtbare_Kanten_TC_020513_DIN_
  6
Continuous
 62
     7
100
AcDbCircle
 10
146.010882557134
 20
103.040001337674
 30
0.0
 40
0.3999999999999773
100
AcDbArc
 50
0.0
 51
60.00000000001756
  0
ARC
  5
2A5
330
1F
100
AcDbEntity
  8
Sichtbare_Kanten_TC_020513_DIN_
  6
Continuous
 62
     7
100
AcDbCircle
 10
53.3108825571336
 20
103.040001337674
 30
0.0
 40
0.4000000000001967
100
AcDbArc
 50
119.9999999999842
 51
180.0
  0
ARC
  5
2A6
330
1F
100
AcDbEntity
  8
Sichtbare_Kanten_TC_020513_DIN_
  6
Continuous
 62
     7
100
AcDbCircle
 10
53.5108825571336
 20
104.079231822216
 30
0.0
 40
0.4000000000001967
100
AcDbArc
 50
299.9999999999842
 51
0.0
  0
ARC
  5
2A7
330
1F
100
AcDbEntity
  8
Sichtbare_Kanten_TC_020513_DIN_
  6
Continuous
 62
     7
100
AcDbCircle
 10
145.810882557134
 20
104.079231822216
 30
0.0
 40
0.4000000000000057
100
AcDbArc
 50
180.0
 51
240.0000000000175
  0
ARC
  5
2A8
330
1F
100
AcDbEntity
  8
Sichtbare_Kanten_TC_020513_DIN_
  6
Continuous
 62
     7
100
AcDbCircle
 10
145.810882557134
 20
104.117351606864
 30
0.0
 40
0.4000000000001896
100
AcDbArc
 50
119.9999999999824
 51
180.0
  0
ARC
  5
2A9
330
1F
100
AcDbEntity
  8
Sichtbare_Kanten_TC_020513_DIN_
  6
Continuous
 62
     7
100
AcDbCircle
 10
53.5108825571336
 20
104.117351606864
 30
0.0
 40
0.3999999999999986
100
AcDbArc
 50
0.0
 51
60.0000000000158
  0
ARC
  5
2AA
330
1F
100
AcDbEntity
  8
Sichtbare_Kanten_TC_020513_DIN_
  6
Continuous
 62
     7
100
AcDbCircle
 10
53.3108825571336
 20
107.656582091405
 30
0.0
 40
0.4000000000000057
100
AcDbArc
 50
180.0
 51
240.0000000000158
  0
ARC
  5
2AB
330
1F
100
AcDbEntity
  8
Sichtbare_Kanten_TC_020513_DIN_
  6
Continuous
 62
     7
100
AcDbCircle
 10
146.010882557134
 20
107.656582091405
 30
0.0
 40
0.4000000000001896
100
AcDbArc
 50
299.9999999999825
 51
0.0
  0
ARC
  5
2AC
330
1F
100
AcDbEntity
  8
Sichtbare_Kanten_TC_020513_DIN_
  6
Continuous
 62
     7
100
AcDbCircle
 10
146.010882557134
 20
105.540001337674
 30
0.0
 40
0.3999999999999773
100
AcDbArc
 50
0.0
 51
60.00000000001756
  0
ARC
  5
2AD
330
1F
100
AcDbEntity
  8
Sichtbare_Kanten_TC_020513_DIN_
  6
Continuous
 62
     7
100
AcDbCircle
 10
53.3108825571336
 20
105.540001337674
 30
0.0
 40
0.4000000000001967
100
AcDbArc
 50
119.9999999999842
 51
180.0
  0
ARC
  5
2AE
330
1F
100
AcDbEntity
  8
Sichtbare_Kanten_TC_020513_DIN_
  6
Continuous
 62
     7
100
AcDbCircle
 10
53.5108825571336
 20
106.579231822216
 30
0.0
 40
0.4000000000001967
100
AcDbArc
 50
299.9999999999842
 51
0.0
  0
ARC
  5
2AF
330
1F
100
AcDbEntity
  8
Sichtbare_Kanten_TC_020513_DIN_
  6
Continuous
 62
     7
100
AcDbCircle
 10
145.810882557134
 20
106.579231822216
 30
0.0
 40
0.4000000000000057
100
AcDbArc
 50
180.0
 51
240.0000000000175
  0
ARC
  5
2B0
330
1F
100
AcDbEntity
  8
Sichtbare_Kanten_TC_020513_DIN_
  6
Continuous
 62
     7
100
AcDbCircle
 10
145.810882557134
 20
106.617351606864
 30
0.0
 40
0.4000000000001896
100
AcDbArc
 50
119.9999999999824
 51
180.0
  0
ARC
  5
2B1
330
1F
100
AcDbEntity
  8
Sichtbare_Kanten_TC_020513_DIN_
  6
Continuous
 62
     7
100
AcDbCircle
 10
53.5108825571336
 20
106.617351606864
 30
0.0
 40
0.3999999999999986
100
AcDbArc
 50
0.0
 51
60.0000000000158
  0
ARC
  5
2B2
330
1F
100
AcDbEntity
  8
Sichtbare_Kanten_TC_020513_DIN_
  6
Continuous
 62
     7
100
AcDbCircle
 10
53.3108825571336
 20
110.156582091405
 30
0.0
 40
0.4000000000000057
100
AcDbArc
 50
180.0
 51
240.0000000000158
  0
ARC
  5
2B3
330
1F
100
AcDbEntity
  8
Sichtbare_Kanten_TC_020513_DIN_
  6
Continuous
 62
     7
100
AcDbCircle
 10
146.010882557134
 20
110.156582091405
 30
0.0
 40
0.4000000000001896
100
AcDbArc
 50
299.9999999999825
 51
0.0
  0
ARC
  5
2B4
330
1F
100
AcDbEntity
  8
Sichtbare_Kanten_TC_020513_DIN_
  6
Continuous
 62
     7
100
AcDbCircle
 10
146.010882557134
 20
108.040001337674
 30
0.0
 40
0.3999999999999773
100
AcDbArc
 50
0.0
 51
60.00000000001756
  0
ARC
  5
2B5
330
1F
100
AcDbEntity
  8
Sichtbare_Kanten_TC_020513_DIN_
  6
Continuous
 62
     7
100
AcDbCircle
 10
53.3108825571336
 20
108.040001337674
 30
0.0
 40
0.4000000000001967
100
AcDbArc
 50
119.9999999999842
 51
180.0
  0
ARC
  5
2B6
330
1F
100
AcDbEntity
  8
Sichtbare_Kanten_TC_020513_DIN_
  6
Continuous
 62
     7
100
AcDbCircle
 10
53.5108825571336
 20
109.079231822216
 30
0.0
 40
0.4000000000001967
100
AcDbArc
 50
299.9999999999842
 51
0.0
  0
ARC
  5
2B7
330
1F
100
AcDbEntity
  8
Sichtbare_Kanten_TC_020513_DIN_
  6
Continuous
 62
     7
100
AcDbCircle
 10
145.810882557134
 20
109.079231822216
 30
0.0
 40
0.4000000000000057
100
AcDbArc
 50
180.0
 51
240.0000000000175
  0
ARC
  5
2B8
330
1F
100
AcDbEntity
  8
Sichtbare_Kanten_TC_020513_DIN_
  6
Continuous
 62
     7
100
AcDbCircle
 10
145.810882557134
 20
109.117351606864
 30
0.0
 40
0.4000000000001896
100
AcDbArc
 50
119.9999999999824
 51
180.0
  0
ARC
  5
2B9
330
1F
100
AcDbEntity
  8
Sichtbare_Kanten_TC_020513_DIN_
  6
Continuous
 62
     7
100
AcDbCircle
 10
53.5108825571336
 20
109.117351606864
 30
0.0
 40
0.3999999999999986
100
AcDbArc
 50
0.0
 51
60.0000000000158
  0
ARC
  5
2BA
330
1F
100
AcDbEntity
  8
Sichtbare_Kanten_TC_020513_DIN_
  6
Continuous
 62
     7
100
AcDbCircle
 10
63.1440333294728
 20
154.59829171454
 30
0.0
 40
4.0
100
AcDbArc
 50
90.0
 51
170.0000000000102
  0
ARC
  5
2BB
330
1F
100
AcDbEntity
  8
Sichtbare_Kanten_TC_020513_DIN_
  6
Continuous
 62
     7
100
AcDbCircle
 10
136.177731784794
 20
154.59829171454
 30
0.0
 40
4.00000000000006
100
AcDbArc
 50
9.99999999998929
 51
90.0
  0
ARC
  5
2BC
330
1F
100
AcDbEntity
  8
Sichtbare_Kanten_TC_020513_DIN_
  6
Continuous
 62
     7
100
AcDbCircle
 10
98.6608825571336
 20
87.4737723502976
 30
0.0
 40
0.25
100
AcDbArc
 50
180.0
 51
0.0
  0
ARC
  5
2BD
330
1F
100
AcDbEntity
  8
Sichtbare_Kanten_TC_020513_DIN_
  6
Continuous
 62
     7
100
AcDbCircle
 10
98.6608825571336
 20
90.9055033864741
 30
0.0
 40
0.2500000000000209
100
AcDbArc
 50
35.90957617701849
 51
180.0
  0
ARC
  5
2BE
330
1F
100
AcDbEntity
  8
Sichtbare_Kanten_TC_020513_DIN_
  6
Continuous
 62
     7
100
AcDbCircle
 10
100.660882557134
 20
90.9055033864741
 30
0.0
 40
0.25
100
AcDbArc
 50
0.0
 51
144.0904238229681
  0
ARC
  5
2BF
330
1F
100
AcDbEntity
  8
Sichtbare_Kanten_TC_020513_DIN_
  6
Continuous
 62
     7
100
AcDbCircle
 10
100.660882557134
 20
86.2910800426052
 30
0.0
 40
0.25
100
AcDbArc
 50
180.0
 51
0.0
  0
ARC
  5
2C0
330
1F
100
AcDbEntity
  8
Sichtbare_Kanten_TC_020513_DIN_
  6
Continuous
 62
     7
100
AcDbCircle
 10
97.6108825571336
 20
90.2997341557048
 30
0.0
 40
0.25
100
AcDbArc
 50
0.0
 51
180.0
  0
ARC
  5
2C1
330
1F
100
AcDbEntity
  8
Sichtbare_Kanten_TC_020513_DIN_
  6
Continuous
 62
     7
100
AcDbCircle
 10
99.6608825571336
 20
85.7141569656822
 30
0.0
 40
0.2500000000000457
100
AcDbArc
 50
240.0183606311554
 51
60.01836063114242
  0
ARC
  5
2C2
330
1F
100
AcDbEntity
  8
Sichtbare_Kanten_TC_020513_DIN_
  6
Continuous
 62
     7
100
AcDbCircle
 10
97.6108825571336
 20
86.8968492733745
 30
0.0
 40
0.25
100
AcDbArc
 50
180.0
 51
240.0183606311526
  0
ARC
  5
2C3
330
1F
100
AcDbEntity
  8
Sichtbare_Kanten_TC_020513_DIN_
  6
Continuous
 62
     7
100
AcDbCircle
 10
96.6108825571336
 20
87.4737723502976
 30
0.0
 40
0.25
100
AcDbArc
 50
180.0
 51
0.0
  0
ARC
  5
2C4
330
1F
100
AcDbEntity
  8
Sichtbare_Kanten_TC_020513_DIN_
  6
Continuous
 62
     7
100
AcDbCircle
 10
96.6108825571336
 20
89.7228110787818
 30
0.0
 40
0.25
100
AcDbArc
 50
0.0
 51
180.0
  0
ARC
  5
2C5
330
1F
100
AcDbEntity
  8
Sichtbare_Kanten_TC_020513_DIN_
  6
Continuous
 62
     7
100
AcDbCircle
 10
101.660882557134
 20
90.328580309551
 30
0.0
 40
0.2499999999997607
100
AcDbArc
 50
60.01836063122305
 51
180.0
  0
ARC
  5
2C6
330
1F
100
AcDbEntity
  8
Sichtbare_Kanten_TC_020513_DIN_
  6
Continuous
 62
     7
100
AcDbCircle
 10
102.660882557134
 20
89.7516572326279
 30
0.0
 40
0.2500000000003439
100
AcDbArc
 50
240.018360631037
 51
60.01836063122305
  0
ARC
  5
2C7
330
1F
100
AcDbEntity
  8
Sichtbare_Kanten_TC_020513_DIN_
  6
Continuous
 62
     7
100
AcDbCircle
 10
102.660882557134
 20
88.5982917145397
 30
0.0
 40
0.2500000000000995
100
AcDbArc
 50
270.0
 51
90.0
  0
ARC
  5
2C8
330
1F
100
AcDbEntity
  8
Sichtbare_Kanten_TC_020513_DIN_
  6
Continuous
 62
     7
100
AcDbCircle
 10
102.660882557134
 20
87.4449261964514
 30
0.0
 40
0.24999999999988
100
AcDbArc
 50
299.9816402225899
 51
119.9816393689745
  0
ARC
  5
2C9
330
1F
100
AcDbEntity
  8
Sichtbare_Kanten_TC_020513_DIN_
  6
Continuous
 62
     7
100
AcDbCircle
 10
101.660882557134
 20
86.8680031195283
 30
0.0
 40
0.25
100
AcDbArc
 50
180.0
 51
299.981639368777
  0
CIRCLE
  5
2CA
330
1F
100
AcDbEntity
  8
Sichtbare_Kanten_TC_020513_DIN_
  6
Continuous
 62
     7
100
AcDbCircle
 10
235.372982382719
 20
89.5982917145396
 30
0.0
 40
4.5
  0
SPLINE
  5
2CB
330
1F
100
AcDbEntity
  8
Sichtbare_Kanten_TC_020513_DIN_
  6
Continuous
 62
     7
100
AcDbSpline
210
0.0
220
0.0
230
1.0
 70
     8
 71
     3
 72
    13
 73
     9
 74
     7
 42
0.0000000001
 43
0.0000000001
 44
0.00000001
 40
0.0
 40
0.0
 40
0.0
 40
0.0
 40
3.693457435129337
 40
7.386904799125291
 40
9.234082950263561
 40
11.08150378356398
 40
13.49664794003597
 40
15.90955221464007
 40
15.90955221464007
 40
15.90955221464007
 40
15.90955221464007
 10
255.372982382747
 20
128.450548544722
 30
0.0
 10
255.7732465363771
 20
129.6181162520314
 30
0.0
 10
256.5737737522173
 20
131.9532484829854
 30
0.0
 10
256.8995913453193
 20
135.0404660293241
 30
0.0
 10
256.8619799690334
 20
137.5041760856125
 30
0.0
 10
256.6429220419748
 20
139.5312124592364
 30
0.0
 10
256.1963740949913
 20
141.718850459723
 30
0.0
 10
255.6473613854699
 20
143.2335529050446
 30
0.0
 10
255.372982382747
 20
143.990552768912
 30
0.0
 11
255.372982382747
 21
128.450548544722
 31
0.0
 11
256.4388030009117
 21
131.9868819898325
 31
0.0
 11
256.8653282129323
 21
135.6556187852595
 31
0.0
 11
256.8335706755374
 21
137.5025239211182
 31
0.0
 11
256.6384239179507
 21
139.3396089704057
 31
0.0
 11
256.1396603425235
 21
141.7026908971209
 31
0.0
 11
255.372982382747
 21
143.990552768912
 31
0.0
  0
SPLINE
  5
2CC
330
1F
100
AcDbEntity
  8
Sichtbare_Kanten_TC_020513_DIN_
  6
Continuous
 62
     7
100
AcDbSpline
210
0.0
220
0.0
230
1.0
 70
     8
 71
     3
 72
    13
 73
     9
 74
     7
 42
0.0000000001
 43
0.0000000001
 44
0.00000001
 40
0.0
 40
0.0
 40
0.0
 40
0.0
 40
3.693457435129416
 40
7.386904799125373
 40
9.234082950263616
 40
11.08150378356403
 40
13.49664794003612
 40
15.90955221464033
 40
15.90955221464033
 40
15.90955221464033
 40
15.90955221464033
 10
215.372982382747
 20
143.990552768912
 30
0.0
 10
214.9727182291169
 20
142.8229850616027
 30
0.0
 10
214.1721910132766
 20
140.4878528306486
 30
0.0
 10
213.8463734201746
 20
137.4006352843099
 30
0.0
 10
213.8839847964604
 20
134.9369252280214
 30
0.0
 10
214.1030427235194
 20
132.9098888543976
 30
0.0
 10
214.5495906705034
 20
130.722250853911
 30
0.0
 10
215.0986033800251
 20
129.2075484085894
 30
0.0
 10
215.372982382748
 20
128.450548544722
 30
0.0
 11
215.372982382747
 21
143.990552768912
 31
0.0
 11
214.3071617645823
 21
140.4542193238014
 31
0.0
 11
213.8806365525616
 21
136.7854825283745
 31
0.0
 11
213.9123940899565
 21
134.9385773925158
 31
0.0
 11
214.1075408475435
 21
133.1014923432283
 31
0.0
 11
214.6063044229711
 21
130.7384104165131
 31
0.0
 11
215.372982382748
 21
128.450548544722
 31
0.0
  0
SPLINE
  5
2CD
330
1F
100
AcDbEntity
  8
Sichtbare_Kanten_TC_020513_DIN_
  6
Continuous
 62
     7
100
AcDbSpline
210
0.0
220
0.0
230
1.0
 70
     8
 71
     3
 72
    13
 73
     9
 74
     7
 42
0.0000000001
 43
0.0000000001
 44
0.00000001
 40
0.0
 40
0.0
 40
0.0
 40
0.0
 40
3.744662703223763
 40
7.489335663003082
 40
9.364788801229151
 40
11.24038914206897
 40
14.04291359510298
 40
16.84316575760118
 40
16.84316575760118
 40
16.84316575760118
 40
16.84316575760118
 10
243.593316824193
 20
158.598291714539
 30
0.0
 10
242.4125492145078
 20
159.0122515963602
 30
0.0
 10
240.0510107610389
 20
159.8401724938305
 30
0.0
 10
236.9261298349598
 20
160.2106482234466
 30
0.0
 10
234.4262491944987
 20
160.2146037872697
 30
0.0
 10
232.2482023945302
 20
160.022079939007
 30
0.0
 10
229.787782954901
 20
159.5591504328885
 30
0.0
 10
228.0307887540095
 20
158.9184913443377
 30
0.0
 10
227.152647941309
 20
158.598291714539
 30
0.0
 11
243.593316824193
 21
158.598291714539
 31
0.0
 11
240.0166306844399
 21
159.7072619659945
 31
0.0
 11
236.3028416310822
 21
160.1872061740675
 31
0.0
 11
234.4273886033285
 21
160.1865624570701
 31
0.0
 11
232.5587724884323
 21
160.0248514379381
 31
0.0
 11
229.8086389599644
 21
159.485491738433
 31
0.0
 11
227.152647941309
 21
158.598291714539
 31
0.0
  0
SPLINE
  5
2CE
330
1F
100
AcDbEntity
  8
Sichtbare_Kanten_TC_020513_DIN_
  6
Continuous
 62
     7
100
AcDbSpline
210
0.0
220
0.0
230
1.0
 70
     8
 71
     3
 72
     9
 73
     5
 74
     3
 42
0.0000000001
 43
0.0000000001
 44
0.00000001
 40
0.0
 40
0.0
 40
0.0
 40
0.0
 40
3.975233987233914
 40
7.949498746300092
 40
7.949498746300092
 40
7.949498746300092
 40
7.949498746300092
 10
256.872982382752
 20
139.033651135021
 30
0.0
 10
256.8085501729083
 20
140.3646413923864
 30
0.0
 10
256.6797014628654
 20
143.0262973895537
 30
0.0
 10
255.8085200037191
 20
145.5446369759176
 30
0.0
 10
255.372982382753
 20
146.803653247114
 30
0.0
 11
256.872982382752
 21
139.033651135021
 31
0.0
 11
256.4940573094016
 21
142.9907840670876
 31
0.0
 11
255.372982382753
 21
146.803653247114
 31
0.0
  0
SPLINE
  5
2CF
330
1F
100
AcDbEntity
  8
Sichtbare_Kanten_TC_020513_DIN_
  6
Continuous
 62
     7
100
AcDbSpline
210
0.0
220
0.0
230
1.0
 70
     8
 71
     3
 72
     9
 73
     5
 74
     3
 42
0.0000000001
 43
0.0000000001
 44
0.00000001
 40
0.0
 40
0.0
 40
0.0
 40
0.0
 40
3.975258620751636
 40
7.949498849396702
 40
7.949498849396702
 40
7.949498849396702
 40
7.949498849396702
 10
215.372982382751
 20
146.803653247116
 30
0.0
 10
214.9373501976584
 20
145.5443147759349
 30
0.0
 10
214.066197428861
 20
143.025960454182
 30
0.0
 10
213.9373818973674
 20
140.3643072486409
 30
0.0
 10
213.872982382752
 20
139.033651135021
 30
0.0
 11
215.372982382751
 21
146.803653247116
 31
0.0
 11
214.2517176894074
 21
142.9898039331916
 31
0.0
 11
213.872982382752
 21
139.033651135021
 31
0.0
  0
SPLINE
  5
2D0
330
1F
100
AcDbEntity
  8
Sichtbare_Kanten_TC_020513_DIN_
  6
Continuous
 62
     7
100
AcDbSpline
210
0.0
220
0.0
230
1.0
 70
     8
 71
     3
 72
    21
 73
    17
 74
    15
 42
0.0000000001
 43
0.0000000001
 44
0.00000001
 40
0.0
 40
0.0
 40
0.0
 40
0.0
 40
1.026214184497846
 40
2.052428855441069
 40
2.526735182244274
 40
3.001106373119191
 40
3.430380839647217
 40
3.859453500076664
 40
4.230349817725892
 40
4.601835507905651
 40
4.904923569518024
 40
5.206455836913801
 40
5.429570523417293
 40
5.656186863065203
 40
5.865945527802322
 40
6.068945531344927
 40
6.068945531344927
 40
6.068945531344927
 40
6.068945531344927
 10
219.872982382719
 20
119.59829171454
 30
0.0
 10
219.5309082693188
 20
119.596825122433
 30
0.0
 10
218.8467598803686
 20
119.5938919375238
 30
0.0
 10
218.0046918918164
 20
119.5738501476811
 30
0.0
 10
217.3468154151633
 20
119.5501995829632
 30
0.0
 10
216.8879603815543
 20
119.5294276605303
 30
0.0
 10
216.4443773857671
 20
119.5051434807066
 30
0.0
 10
216.0355292656196
 20
119.4778393974186
 30
0.0
 10
215.6462936886503
 20
119.4463916359606
 30
0.0
 10
215.2993549942658
 20
119.4137125179438
 30
0.0
 10
214.9757135949195
 20
119.379408097805
 30
0.0
 10
214.7025329905656
 20
119.3417102413187
 30
0.0
 10
214.4553598028753
 20
119.2974677512898
 30
0.0
 10
214.2425124286832
 20
119.2517371657992
 30
0.0
 10
214.0239599127605
 20
119.2200537225656
 30
0.0
 10
213.9227558419286
 20
119.1217210179038
 30
0.0
 10
213.872982382723
 20
119.073359733384
 30
0.0
 11
219.872982382719
 21
119.59829171454
 31
0.0
 11
218.8467973600529
 21
119.5905553251725
 31
0.0
 11
217.8208615227654
 21
119.5666344424903
 31
0.0
 11
217.3468660383986
 21
119.5494655041024
 31
0.0
 11
216.8729823827194
 21
119.5279641643236
 31
0.0
 11
216.4443616018606
 21
119.5042830784351
 31
0.0
 11
216.0162567246002
 21
119.4754809605633
 31
0.0
 11
215.6465668613316
 21
119.4455897671754
 31
0.0
 11
215.2767157240062
 21
119.4107795067987
 31
0.0
 11
214.9754301923648
 21
119.3777734237917
 31
0.0
 11
214.6768299600143
 21
119.3358257239613
 31
0.0
 11
214.4572052918386
 21
119.2965170930731
 31
0.0
 11
214.2348266580058
 21
119.2528970448147
 31
0.0
 11
214.0319503724647
 21
119.1996062370021
 31
0.0
 11
213.872982382723
 21
119.073359733384
 31
0.0
  0
SPLINE
  5
2D1
330
1F
100
AcDbEntity
  8
Sichtbare_Kanten_TC_020513_DIN_
  6
Continuous
 62
     7
100
AcDbSpline
210
0.0
220
0.0
230
1.0
 70
     8
 71
     3
 72
    23
 73
    19
 74
    17
 42
0.0000000001
 43
0.0000000001
 44
0.00000001
 40
0.0
 40
0.0
 40
0.0
 40
0.0
 40
0.2030000031912708
 40
0.4127586679938154
 40
0.6393750082407099
 40
0.8624896942111161
 40
1.164021959906625
 40
1.467110022061858
 40
1.838595712193508
 40
2.209492032383623
 40
2.638564716950665
 40
3.067839148544417
 40
3.542210148001381
 40
4.016516702123662
 40
4.521764216459713
 40
5.02703462527212
 40
5.548008116957825
 40
6.06896195854668
 40
6.06896195854668
 40
6.06896195854668
 40
6.06896195854668
 10
256.872982382723
 20
119.073359733384
 30
0.0
 10
256.8232089235034
 20
119.1217210177661
 30
0.0
 10
256.7220048525381
 20
119.2200537222499
 30
0.0
 10
256.503452336321
 20
119.2517371640612
 30
0.0
 10
256.2906049640852
 20
119.2974677592582
 30
0.0
 10
256.0434317760518
 20
119.3417102473744
 30
0.0
 10
255.7702511646272
 20
119.3794080465424
 30
0.0
 10
255.4466097684007
 20
119.4137124927307
 30
0.0
 10
255.0996711013712
 20
119.4463918461251
 30
0.0
 10
254.7104355012755
 20
119.4778397485974
 30
0.0
 10
254.3015873034282
 20
119.5051415223205
 30
0.0
 10
253.8580043599302
 20
119.5294297881426
 30
0.0
 10
253.3991498222695
 20
119.550192478678
 30
0.0
 10
252.9148170565844
 20
119.5676619849737
 30
0.0
 10
252.4200559754079
 20
119.5812630169109
 30
0.0
 10
251.9096478116169
 20
119.5910119235668
 30
0.0
 10
251.3939440973349
 20
119.5971593623314
 30
0.0
 10
251.0466341042413
 20
119.5979142685495
 30
0.0
 10
250.872982382719
 20
119.59829171454
 30
0.0
 11
256.872982382723
 21
119.073359733384
 31
0.0
 11
256.7140143929861
 21
119.1996062364431
 31
0.0
 11
256.5111381075191
 21
119.2528970447957
 31
0.0
 11
256.2887594742834
 21
119.2965170992102
 31
0.0
 11
256.0691348055478
 21
119.3358257239438
 31
0.0
 11
255.7705345697437
 21
119.3777733869681
 31
0.0
 11
255.4692490415885
 21
119.4107795067832
 31
0.0
 11
255.0993979222567
 21
119.4455899578232
 31
0.0
 11
254.7297080410231
 21
119.4754809605507
 31
0.0
 11
254.3016030793141
 21
119.5042821827764
 31
0.0
 11
253.8729823829279
 21
119.5279641643137
 31
0.0
 11
253.3990990965756
 21
119.5494694204552
 31
0.0
 11
252.9251032428995
 21
119.5666344424834
 31
0.0
 11
252.42004758642
 21
119.5805568920121
 31
0.0
 11
251.9148714489573
 21
119.5903168182266
 31
0.0
 11
251.3939324671093
 21
119.5963131696484
 31
0.0
 11
250.872982382719
 21
119.59829171454
 31
0.0
  0
SPLINE
  5
2D2
330
1F
100
AcDbEntity
  8
Sichtbare_Kanten_TC_020513_DIN_
  6
Continuous
 62
     7
100
AcDbSpline
210
0.0
220
0.0
230
1.0
 70
     8
 71
     3
 72
    13
 73
     9
 74
     7
 42
0.0000000001
 43
0.0000000001
 44
0.00000001
 40
0.0
 40
0.0
 40
0.0
 40
0.0
 40
1.030393984623908
 40
2.060716678392809
 40
2.555685707626882
 40
3.050780319765773
 40
3.605627066140375
 40
4.159763553557728
 40
4.159763553557728
 40
4.159763553557728
 40
4.159763553557728
 10
140.406486376174
 20
119.09829171454
 30
0.0
 10
140.7504016636198
 20
119.1147736898341
 30
0.0
 10
141.4382084437151
 20
119.1477365000681
 30
0.0
 10
142.2656578508463
 20
119.381994430305
 30
0.0
 10
142.8834300184883
 20
119.6515757570408
 30
0.0
 10
143.3324376633412
 20
119.9052752047514
 30
0.0
 10
143.7708466263995
 20
120.2145635677387
 30
0.0
 10
144.0382361859639
 20
120.4704369577958
 30
0.0
 10
144.171845339641
 20
120.59829171454
 30
0.0
 11
140.406486376174
 21
119.09829171454
 31
0.0
 11
141.4330787479537
 21
119.1867217193621
 31
0.0
 11
142.4264615996291
 21
119.4601359898244
 31
0.0
 11
142.8796470016375
 21
119.6591770190305
 31
0.0
 11
143.3110261955766
 21
119.9021392918332
 31
0.0
 11
143.762102915341
 21
120.2252255107423
 31
0.0
 11
144.171845339641
 21
120.59829171454
 31
0.0
  0
SPLINE
  5
2D3
330
1F
100
AcDbEntity
  8
Sichtbare_Kanten_TC_020513_DIN_
  6
Continuous
 62
     7
100
AcDbSpline
210
0.0
220
0.0
230
1.0
 70
     8
 71
     3
 72
    13
 73
     9
 74
     7
 42
0.0000000001
 43
0.0000000001
 44
0.00000001
 40
0.0
 40
0.0
 40
0.0
 40
0.0
 40
0.9778300980471895
 40
1.955719601381625
 40
2.461638539639103
 40
2.967652589945847
 40
3.563786623059506
 40
4.159440046405908
 40
4.159440046405908
 40
4.159440046405908
 40
4.159440046405908
 10
55.1499197746266
 20
120.59829171454
 30
0.0
 10
55.39207592094543
 20
120.3784068434806
 30
0.0
 10
55.87640292509118
 20
119.9386237428817
 30
0.0
 10
56.61376953839242
 20
119.558506011222
 30
0.0
 10
57.23806628272597
 20
119.33367752205
 30
0.0
 10
57.7586125288185
 20
119.2025734249093
 30
0.0
 10
58.31919984953532
 20
119.1148938898403
 30
0.0
 10
58.7166392001009
 20
119.1038242849675
 30
0.0
 10
58.9152787380938
 20
119.09829171454
 30
0.0
 11
55.1499197746266
 21
120.59829171454
 31
0.0
 11
55.90176045426054
 21
119.9730819152769
 31
0.0
 11
56.76429772162967
 21
119.5123245570817
 31
0.0
 11
57.24055678273869
 21
119.3416456808283
 31
0.0
 11
57.73094410907152
 21
119.2168639142116
 31
0.0
 11
58.32034180702293
 21
119.1274987135687
 31
0.0
 11
58.9152787380938
 21
119.09829171454
 31
0.0
  0
SPLINE
  5
2D4
330
1F
100
AcDbEntity
  8
Sichtbare_Kanten_TC_020513_DIN_
  6
Continuous
 62
     7
100
AcDbSpline
210
0.0
220
0.0
230
1.0
 70
     8
 71
     3
 72
    13
 73
     9
 74
     7
 42
0.0000000001
 43
0.0000000001
 44
0.00000001
 40
0.0
 40
0.0
 40
0.0
 40
0.0
 40
1.092483549400248
 40
2.185039291228655
 40
2.750639868731205
 40
3.316287572375543
 40
3.970628998488416
 40
4.624570175048573
 40
4.624570175048573
 40
4.624570175048573
 40
4.624570175048573
 10
64.5577421207647
 20
151.09829171454
 30
0.0
 10
64.19322077559012
 20
151.0797442377756
 30
0.0
 10
63.46415399729837
 20
151.0426480586105
 30
0.0
 10
62.5720376766488
 20
150.8047975685466
 30
0.0
 10
61.87868817606042
 20
150.5421211720333
 30
0.0
 10
61.34007643614011
 20
150.2875352039578
 30
0.0
 10
60.79548092943079
 20
149.9793625962005
 30
0.0
 10
60.440725609225
 20
149.7252894317949
 30
0.0
 10
60.2634022151721
 20
149.59829171454
 30
0.0
 11
64.5577421207647
 21
151.09829171454
 31
0.0
 11
63.46927573803134
 21
151.0046902221934
 31
0.0
 11
62.41016108021397
 21
150.7364474392549
 31
0.0
 11
61.88157083258834
 21
150.5352103567221
 31
0.0
 11
61.36972226885352
 21
150.2944441372462
 31
0.0
 11
60.8017318788349
 21
149.9695601290619
 31
0.0
 11
60.2634022151721
 21
149.59829171454
 31
0.0
  0
SPLINE
  5
2D5
330
1F
100
AcDbEntity
  8
Sichtbare_Kanten_TC_020513_DIN_
  6
Continuous
 62
     7
100
AcDbSpline
210
0.0
220
0.0
230
1.0
 70
     8
 71
     3
 72
    13
 73
     9
 74
     7
 42
0.0000000001
 43
0.0000000001
 44
0.00000001
 40
0.0
 40
0.0
 40
0.0
 40
0.0
 40
1.139914226848517
 40
2.279805389027705
 40
2.835617104293682
 40
3.391518915431575
 40
4.008425831895837
 40
4.624771341540219
 40
4.624771341540219
 40
4.624771341540219
 40
4.624771341540219
 10
139.058362899095
 20
149.59829171454
 30
0.0
 10
138.745044421927
 20
149.8144102720425
 30
0.0
 10
138.1184138071795
 20
150.246643014172
 30
0.0
 10
137.2484302580962
 20
150.6308354815195
 30
0.0
 10
136.5334799613522
 20
150.8603470206572
 30
0.0
 10
135.9717605209069
 20
150.9910920509144
 30
0.0
 10
135.3807848296486
 20
151.0805251906407
 30
0.0
 10
134.9695478704933
 20
151.0923713374593
 30
0.0
 10
134.764022993502
 20
151.09829171454
 30
0.0
 11
139.058362899095
 21
149.59829171454
 31
0.0
 11
138.1002004190709
 21
150.2158102215062
 31
0.0
 11
137.0610143320458
 21
150.6842588719981
 31
0.0
 11
136.5314457807346
 21
150.8530303514875
 31
0.0
 11
135.9901725784529
 21
150.9797195148684
 31
0.0
 11
135.3796281968582
 21
151.0680920314365
 31
0.0
 11
134.764022993502
 21
151.09829171454
 31
0.0
  0
LWPOLYLINE
  5
2D6
330
1F
100
AcDbEntity
  8
Sichtbare_Kanten_TC_020513_DIN_
  6
Continuous
 62
     7
100
AcDbPolyline
 90
       48
 70
     0
 43
0.0
 10
142.770061100224
 20
128.548194249025
 10
142.015475834111
 20
128.77185471808
 10
141.295442188481
 20
128.998547871461
 10
140.609392727117
 20
129.228340466371
 10
139.956783855657
 20
129.461289723268
 10
139.337102974156
 20
129.697467167726
 10
138.749868477086
 20
129.936939556947
 10
138.194634521703
 20
130.179773648133
 10
137.670971954564
 20
130.426040966859
 10
137.178492153386
 20
130.675813038697
 10
136.716823185185
 20
130.929170925965
 10
136.28562649558
 20
131.186190922608
 10
135.884587372045
 20
131.446949322572
 10
135.513410175542
 20
131.711531956544
 10
135.17183502982
 20
131.980019886842
 10
134.859613979558
 20
132.252503712526
 10
134.576532448033
 20
132.529069264283
 10
134.322392547826
 20
132.809816677918
 10
134.097020233373
 20
133.09483178412
 10
133.900267685155
 20
133.384219487062
 10
133.732003772954
 20
133.678079922547
 10
133.592121208409
 20
133.97651322638
 10
133.480536545018
 20
134.279633839479
 10
133.397185409764
 20
134.587546666017
 10
133.342027271489
 20
134.900370915284
 10
133.315038288335
 20
135.218225796571
 10
133.316220844487
 20
135.541230519166
 10
133.345594013432
 20
135.869509060731
 10
133.403205478886
 20
136.20319493567
 10
133.48911722968
 20
136.542426426759
 10
133.603415096501
 20
136.88733228003
 10
133.746208751897
 20
137.238069851747
 10
133.917626941899
 20
137.594777424684
 10
134.117824638585
 20
137.957612355104
 10
134.346971119145
 20
138.32673676764
 10
134.605271423558
 20
138.702312786927
 10
134.892940128545
 20
139.08450730597
 10
135.210227573613
 20
139.473501522889
 10
135.557400787572
 20
139.869481404176
 10
135.934753025273
 20
140.272632916322
 10
136.342603767613
 20
140.683151562562
 10
136.781301105718
 20
141.101242382875
 10
137.251216972569
 20
141.527115185609
 10
137.752749527196
 20
141.96099408423
 10
138.286327923039
 20
142.403098423829
 10
138.852409923772
 20
142.85367615973
 10
139.45148428748
 20
143.312965710511
 10
140.084070766667
 20
143.781219799867
  0
LWPOLYLINE
  5
2D7
330
1F
100
AcDbEntity
  8
Sichtbare_Kanten_TC_020513_DIN_
  6
Continuous
 62
     7
100
AcDbPolyline
 90
       25
 70
     0
 43
0.0
 10
140.084070766667
 20
143.781219799867
 10
140.090803707341
 20
143.819977124086
 10
140.097541416386
 20
143.858748753419
 10
140.104288662175
 20
143.897525151124
 10
140.111035907964
 20
143.936311085572
 10
140.117787922124
 20
143.975111325135
 10
140.124544704656
 20
144.01391633307
 10
140.131301487187
 20
144.052730877748
 10
140.138067806462
 20
144.091554959168
 10
140.144829357366
 20
144.130388577333
 10
140.15159567664
 20
144.16923173224
 10
140.158361995915
 20
144.208079655519
 10
140.16512831519
 20
144.246941883912
 10
140.171899402837
 20
144.285804112306
 10
140.178665722112
 20
144.324675877442
 10
140.185432041386
 20
144.363557179322
 10
140.192198360661
 20
144.402443249574
 10
140.198959911565
 20
144.441338856568
 10
140.20572623084
 20
144.480239231935
 10
140.212483013371
 20
144.519149144044
 10
140.219239795903
 20
144.558059056153
 10
140.225991810063
 20
144.596978505006
 10
140.232739055852
 20
144.63590272223
 10
140.239481533269
 20
144.674812634339
 10
140.2462049372
 20
144.713660557618
  0
LWPOLYLINE
  5
2D8
330
1F
100
AcDbEntity
  8
Sichtbare_Kanten_TC_020513_DIN_
  6
Continuous
 62
     7
100
AcDbPolyline
 90
       25
 70
     0
 43
0.0
 10
143.241333568791
 20
127.727443058839
 10
143.221845234135
 20
127.761441548219
 10
143.202337825993
 20
127.795459111085
 10
143.182820881108
 20
127.829495747438
 10
143.163284862737
 20
127.863551457277
 10
143.143729770879
 20
127.89762147223
 10
143.124165142278
 20
127.93171056067
 10
143.104586208562
 20
127.965813954225
 10
143.084992969731
 20
127.999936421266
 10
143.065385425786
 20
128.034077961793
 10
143.045763576726
 20
128.068233807435
 10
143.026132190923
 20
128.102403958192
 10
143.006491268376
 20
128.136597950807
 10
142.986836040715
 20
128.170806248536
 10
142.967171276311
 20
128.20502885138
 10
142.947496975163
 20
128.239270527711
 10
142.927813137273
 20
128.273531277528
 10
142.908119762639
 20
128.30780633246
 10
142.888416851262
 20
128.342095692506
 10
142.868709171514
 20
128.376404126039
 10
142.848991955022
 20
128.410731633058
 10
142.829269970158
 20
128.445073445192
 10
142.809538448552
 20
128.47942956244
 10
142.789802158574
 20
128.513804753175
 10
142.770061100224
 20
128.548194249025
  0
LWPOLYLINE
  5
2D9
330
1F
100
AcDbEntity
  8
Sichtbare_Kanten_TC_020513_DIN_
  6
Continuous
 62
     7
100
AcDbPolyline
 90
       25
 70
     0
 43
0.0
 10
140.2462049372
 20
144.713660557618
 10
140.315646732549
 20
145.014911969056
 10
140.382361019353
 20
145.314136822572
 10
140.446199978093
 20
145.61123021399
 10
140.507020557622
 20
145.906101544252
 10
140.564679706792
 20
146.198655445924
 10
140.619039142827
 20
146.488787014833
 10
140.669946277837
 20
146.776405651918
 10
140.717267597417
 20
147.061415989747
 10
140.760855282048
 20
147.343717892518
 10
140.800561512212
 20
147.623220761171
 10
140.836267078618
 20
147.899819691529
 10
140.867905224065
 20
148.173433621278
 10
140.895261371831
 20
148.443962414613
 10
140.918087566594
 20
148.711325009217
 10
140.936116779546
 20
148.97542603766
 10
140.949096286992
 20
149.23617490088
 10
140.956768596868
 20
149.493485768189
 10
140.958876217107
 20
149.747263272157
 10
140.955161655644
 20
149.997421582093
 10
140.945372188786
 20
150.243870098939
 10
140.929245556096
 20
150.486518223634
 10
140.906524265508
 20
150.725275357118
 10
140.876955593327
 20
150.960050900331
 10
140.840277279118
 20
151.190759022584
  0
LWPOLYLINE
  5
2DA
330
1F
100
AcDbEntity
  8
Sichtbare_Kanten_TC_020513_DIN_
  6
Continuous
 62
     7
100
AcDbPolyline
 90
       25
 70
     0
 43
0.0
 10
146.014875972966
 20
121.844147522798
 10
145.970434749822
 20
122.073482354036
 10
145.91792544196
 20
122.304214318147
 10
145.857615078191
 20
122.536343415132
 10
145.789780224065
 20
122.769872029176
 10
145.714687908391
 20
123.004809697022
 10
145.632619465093
 20
123.241149266114
 10
145.543841922978
 20
123.478905041566
 10
145.448627079228
 20
123.718072255006
 10
145.347246731023
 20
123.958655674806
 10
145.239977443913
 20
124.200664837709
 10
145.127086246709
 20
124.444094975343
 10
145.008849704961
 20
124.68895085608
 10
144.885539615849
 20
124.935242016664
 10
144.757389629582
 20
125.182949383607
 10
144.624480808476
 20
125.432015736451
 10
144.486965740422
 20
125.682383854737
 10
144.345020855168
 20
125.934020359864
 10
144.19881304572
 20
126.186882336488
 10
144.04849966834
 20
126.440926869264
 10
143.894261921147
 20
126.696115811219
 10
143.736257160405
 20
126.952401478639
 10
143.574652279118
 20
127.209745724549
 10
143.409623707036
 20
127.468105633607
 10
143.241333568791
 20
127.727443058839
  0
TEXT
  5
2DC
330
1F
100
AcDbEntity
  8
Symbole_ISO_
 62
     7
100
AcDbText
 10
138.0
 20
19.2499999701976
 30
0.0
 40
4.00000005960464
  1
CAOT 16.6 L
 41
0.89999994635582
  7
CONVERTER_13
100
AcDbText
  0
TEXT
  5
2DD
330
1F
100
AcDbEntity
  8
Symbole_ISO_
 62
     7
100
AcDbText
 10
251.305457141674
 20
12.5
 30
0.0
 40
5.0
  1
1:1
 41
0.67499998211861
  7
CONVERTER_12
100
AcDbText
  0
TEXT
  5
2DE
330
1F
100
AcDbEntity
  8
Symbole_ISO_
 62
     7
100
AcDbText
 10
138.0
 20
11.7499999701976
 30
0.0
 40
4.00000005960464
  1
hood side entry NPT 1"
 41
0.89999994635582
  7
CONVERTER_13
100
AcDbText
  0
DIMENSION
  5
2EA
330
1F
100
AcDbEntity
  8
Bemaßungen_TC_020513_DIN_
100
AcDbDimension
  2
*D3
 10
165.5107864335923
 20
155.1878053419807
 30
0.0
 11
172.29386479305
 21
142.169207934064
 31
0.0
 70
    32
  1
NTP 1"
 71
     5
 42
-1.0
 53
100.0
  3
ME10_DIM_10
100
AcDbAlignedDimension
 13
154.807718948215
 23
123.747589655643
 33
0.0
 14
149.753862385397
 24
152.40943449931
 34
0.0
 50
100.0
100
AcDbRotatedDimension
  0
DIMENSION
  5
2F5
330
1F
100
AcDbEntity
  8
Bemaßungen_TC_020513_DIN_
100
AcDbDimension
  2
*D4
 10
37.17488655324436
 20
82.5982917145397
 30
0.0
 11
32.8008756391925
 21
120.976988849601
 31
0.0
 70
    32
  1
76
 71
     5
 42
-1.0
 53
90.0
  3
ME10_DIM_11
100
AcDbAlignedDimension
 13
65.1748865532443
 23
158.59829171454
 33
0.0
 14
58.9108825571336
 24
82.5982917145397
 34
0.0
 50
90.0
100
AcDbRotatedDimension
  0
DIMENSION
  5
300
330
1F
100
AcDbEntity
  8
Bemaßungen_TC_020513_DIN_
100
AcDbDimension
  2
*D5
 10
213.8729823827224
 20
72.59829171453967
 30
0.0
 11
235.66573135953
 21
76.9746900774319
 31
0.0
 70
    32
  1
43
 71
     5
 42
-1.0
 53
0.00013888888889
  3
ME10_DIM_12
100
AcDbAlignedDimension
 13
256.872982382723
 23
89.0691465261069
 33
0.0
 14
213.872982382723
 24
89.0691465261069
 34
0.0
100
AcDbRotatedDimension
  0
DIMENSION
  5
30B
330
1F
100
AcDbEntity
  8
Bemaßungen_TC_020513_DIN_
100
AcDbDimension
  2
*D6
 10
45.6608825571338
 20
61.59829171453966
 30
0.0
 11
100.260561956861
 21
65.9723026285915
 31
0.0
 70
    32
  1
108
 71
     5
 42
-1.0
 53
0.00013888888889
  3
ME10_DIM_13
100
AcDbAlignedDimension
 13
153.660882557134
 23
89.5982917145396
 33
0.0
 14
45.6608825571336
 24
89.5982917145396
 34
0.0
100
AcDbRotatedDimension
  0
DIMENSION
  5
316
330
1F
100
AcDbEntity
  8
Bemaßungen_TC_020513_DIN_
100
AcDbDimension
  2
*D7
 10
146.4108825571334
 20
72.59829171453946
 30
0.0
 11
100.842048996424
 21
77.6049765712928
 31
0.0
 70
    32
  1
93,5
 71
     5
 42
-1.0
 53
0.00013888888889
  3
ME10_DIM_14
100
AcDbAlignedDimension
 13
52.9108825571336
 23
82.5982917145397
 33
0.0
 14
146.410882557134
 24
82.5982917145397
 34
0.0
100
AcDbRotatedDimension
  0
ENDSEC
  0
SECTION
  2
OBJECTS
  0
DICTIONARY
  5
C
330
0
100
AcDbDictionary
281
     1
  3
ACAD_GROUP
350
D
  3
ACAD_LAYOUT
350
1A
  3
ACAD_MATERIAL
350
3B
  3
ACAD_MLEADERSTYLE
350
319
  3
ACAD_MLINESTYLE
350
17
  3
ACAD_PLOTSETTINGS
350
19
  3
ACAD_PLOTSTYLENAME
350
E
  3
ACAD_SCALELIST
350
51
  3
ACAD_VISUALSTYLE
350
2A
  3
AcDbVariableDictionary
350
317
  0
DICTIONARY
  5
D
102
{ACAD_REACTORS
330
C
102
}
330
C
100
AcDbDictionary
281
     1
  0
DICTIONARY
  5
1A
102
{ACAD_REACTORS
330
C
102
}
330
C
100
AcDbDictionary
281
     1
  3
Layout1
350
1E
  3
Layout2
350
26
  3
Model
350
22
  0
DICTIONARY
  5
3B
102
{ACAD_REACTORS
330
C
102
}
330
C
100
AcDbDictionary
281
     1
  3
ByBlock
350
3D
  3
ByLayer
350
3C
  3
Global
350
3E
  0
DICTIONARY
  5
319
102
{ACAD_REACTORS
330
C
102
}
330
C
100
AcDbDictionary
281
     1
  0
DICTIONARY
  5
17
102
{ACAD_REACTORS
330
C
102
}
330
C
100
AcDbDictionary
281
     1
  3
Standard
350
18
  0
DICTIONARY
  5
19
102
{ACAD_REACTORS
330
C
102
}
330
C
100
AcDbDictionary
281
     1
  0
ACDBDICTIONARYWDFLT
  5
E
102
{ACAD_REACTORS
330
C
102
}
330
C
100
AcDbDictionary
281
     1
  3
Normal
350
F
100
AcDbDictionaryWithDefault
340
F
  0
DICTIONARY
  5
51
102
{ACAD_REACTORS
330
C
102
}
330
C
100
AcDbDictionary
281
     1
  3
A0
350
52
  3
A1
350
53
  3
A2
350
54
  3
A3
350
55
  3
A4
350
56
  3
A5
350
57
  3
A6
350
58
  3
A7
350
59
  3
A8
350
5A
  3
A9
350
5B
  3
B0
350
5C
  3
B1
350
5D
  3
B2
350
5E
  3
B3
350
5F
  3
B4
350
60
  3
B5
350
61
  3
B6
350
62
  3
B7
350
63
  3
B8
350
64
  3
B9
350
65
  3
C0
350
66
  3
C1
350
67
  3
C2
350
68
  3
C3
350
69
  3
C4
350
6A
  3
C5
350
6B
  3
C6
350
6C
  3
C7
350
6D
  3
C8
350
6E
  3
C9
350
6F
  3
D0
350
70
  3
D1
350
71
  3
D2
350
72
  0
DICTIONARY
  5
2A
102
{ACAD_REACTORS
330
C
102
}
330
C
100
AcDbDictionary
281
     1
  3
2dWireframe
350
2F
  3
3D Hidden
350
31
  3
3dWireframe
350
30
  3
Basic
350
32
  3
Brighten
350
36
  3
ColorChange
350
3A
  3
Conceptual
350
34
  3
Dim
350
35
  3
Facepattern
350
39
  3
Flat
350
2B
  3
FlatWithEdges
350
2C
  3
Gouraud
350
2D
  3
GouraudWithEdges
350
2E
  3
Linepattern
350
38
  3
Realistic
350
33
  3
Thicken
350
37
  0
DICTIONARY
  5
317
102
{ACAD_REACTORS
330
C
102
}
330
C
100
AcDbDictionary
281
     1
  3
CANNOSCALE
350
31A
  3
DIMASSOC
350
31B
  3
HIDETEXT
350
31C
  0
LAYOUT
  5
1E
102
{ACAD_REACTORS
330
1A
102
}
330
1A
100
AcDbPlotSettings
  1

  2
none_device
  4

  6

 40
0.0
 41
0.0
 42
0.0
 43
0.0
 44
0.0
 45
0.0
 46
0.0
 47
0.0
 48
0.0
 49
0.0
140
0.0
141
0.0
142
1.0
143
1.0
 70
   688
 72
     0
 73
     0
 74
     5
  7

 75
    16
147
1.0
148
0.0
149
0.0
100
AcDbLayout
  1
Layout1
 70
     1
 71
     1
 10
0.0
 20
0.0
 11
12.0
 21
9.0
 12
0.0
 22
0.0
 32
0.0
 14
1.00000000000000E+20
 24
1.00000000000000E+20
 34
1.00000000000000E+20
 15
-1.00000000000000E+20
 25
-1.00000000000000E+20
 35
-1.00000000000000E+20
146
0.0
 13
0.0
 23
0.0
 33
0.0
 16
1.0
 26
0.0
 36
0.0
 17
0.0
 27
1.0
 37
0.0
 76
     0
330
1B
  0
LAYOUT
  5
26
102
{ACAD_REACTORS
330
1A
102
}
330
1A
100
AcDbPlotSettings
  1

  2
none_device
  4

  6

 40
0.0
 41
0.0
 42
0.0
 43
0.0
 44
0.0
 45
0.0
 46
0.0
 47
0.0
 48
0.0
 49
0.0
140
0.0
141
0.0
142
1.0
143
1.0
 70
   688
 72
     0
 73
     0
 74
     5
  7

 75
    16
147
1.0
148
0.0
149
0.0
100
AcDbLayout
  1
Layout2
 70
     1
 71
     2
 10
0.0
 20
0.0
 11
0.0
 21
0.0
 12
0.0
 22
0.0
 32
0.0
 14
0.0
 24
0.0
 34
0.0
 15
0.0
 25
0.0
 35
0.0
146
0.0
 13
0.0
 23
0.0
 33
0.0
 16
1.0
 26
0.0
 36
0.0
 17
0.0
 27
1.0
 37
0.0
 76
     0
330
23
  0
LAYOUT
  5
22
102
{ACAD_REACTORS
330
1A
102
}
330
1A
100
AcDbPlotSettings
  1

  2
none_device
  4

  6

 40
0.0
 41
0.0
 42
0.0
 43
0.0
 44
0.0
 45
0.0
 46
0.0
 47
0.0
 48
0.0
 49
0.0
140
0.0
141
0.0
142
1.0
143
1.0
 70
  1712
 72
     0
 73
     0
 74
     0
  7

 75
     0
147
1.0
148
0.0
149
0.0
100
AcDbLayout
  1
Model
 70
     1
 71
     0
 10
0.0
 20
0.0
 11
12.0
 21
9.0
 12
0.0
 22
0.0
 32
0.0
 14
9.99999999999998
 24
9.99999999999995
 34
0.0
 15
287.0
 25
210.0
 35
0.0
146
0.0
 13
0.0
 23
0.0
 33
0.0
 16
1.0
 26
0.0
 36
0.0
 17
0.0
 27
1.0
 37
0.0
 76
     0
330
1F
331
29
  0
MATERIAL
  5
3D
102
{ACAD_REACTORS
330
3B
102
}
102
{ACAD_XDICTIONARY
360
33F
102
}
330
3B
100
AcDbMaterial
  1
ByBlock
  0
MATERIAL
  5
3C
102
{ACAD_REACTORS
330
3B
102
}
102
{ACAD_XDICTIONARY
360
33D
102
}
330
3B
100
AcDbMaterial
  1
ByLayer
  0
MATERIAL
  5
3E
102
{ACAD_REACTORS
330
3B
102
}
102
{ACAD_XDICTIONARY
360
341
102
}
330
3B
100
AcDbMaterial
  1
Global
  0
MLINESTYLE
  5
18
102
{ACAD_REACTORS
330
17
102
}
330
17
100
AcDbMlineStyle
  2
Standard
 70
     0
  3

 62
   256
 51
90.0
 52
90.0
 71
     2
 49
0.5
 62
   256
  6
BYLAYER
 49
-0.5
 62
   256
  6
BYLAYER
  0
ACDBPLACEHOLDER
  5
F
102
{ACAD_REACTORS
330
E
102
}
330
E
  0
SCALE
  5
52
102
{ACAD_REACTORS
330
51
102
}
330
51
100
AcDbScale
 70
     0
300
1:1
140
1.0
141
1.0
290
     1
  0
SCALE
  5
53
102
{ACAD_REACTORS
330
51
102
}
330
51
100
AcDbScale
 70
     0
300
1:2
140
1.0
141
2.0
290
     0
  0
SCALE
  5
54
102
{ACAD_REACTORS
330
51
102
}
330
51
100
AcDbScale
 70
     0
300
1:4
140
1.0
141
4.0
290
     0
  0
SCALE
  5
55
102
{ACAD_REACTORS
330
51
102
}
330
51
100
AcDbScale
 70
     0
300
1:5
140
1.0
141
5.0
290
     0
  0
SCALE
  5
56
102
{ACAD_REACTORS
330
51
102
}
330
51
100
AcDbScale
 70
     0
300
1:8
140
1.0
141
8.0
290
     0
  0
SCALE
  5
57
102
{ACAD_REACTORS
330
51
102
}
330
51
100
AcDbScale
 70
     0
300
1:10
140
1.0
141
10.0
290
     0
  0
SCALE
  5
58
102
{ACAD_REACTORS
330
51
102
}
330
51
100
AcDbScale
 70
     0
300
1:16
140
1.0
141
16.0
290
     0
  0
SCALE
  5
59
102
{ACAD_REACTORS
330
51
102
}
330
51
100
AcDbScale
 70
     0
300
1:20
140
1.0
141
20.0
290
     0
  0
SCALE
  5
5A
102
{ACAD_REACTORS
330
51
102
}
330
51
100
AcDbScale
 70
     0
300
1:30
140
1.0
141
30.0
290
     0
  0
SCALE
  5
5B
102
{ACAD_REACTORS
330
51
102
}
330
51
100
AcDbScale
 70
     0
300
1:40
140
1.0
141
40.0
290
     0
  0
SCALE
  5
5C
102
{ACAD_REACTORS
330
51
102
}
330
51
100
AcDbScale
 70
     0
300
1:50
140
1.0
141
50.0
290
     0
  0
SCALE
  5
5D
102
{ACAD_REACTORS
330
51
102
}
330
51
100
AcDbScale
 70
     0
300
1:100
140
1.0
141
100.0
290
     0
  0
SCALE
  5
5E
102
{ACAD_REACTORS
330
51
102
}
330
51
100
AcDbScale
 70
     0
300
2:1
140
2.0
141
1.0
290
     0
  0
SCALE
  5
5F
102
{ACAD_REACTORS
330
51
102
}
330
51
100
AcDbScale
 70
     0
300
4:1
140
4.0
141
1.0
290
     0
  0
SCALE
  5
60
102
{ACAD_REACTORS
330
51
102
}
330
51
100
AcDbScale
 70
     0
300
8:1
140
8.0
141
1.0
290
     0
  0
SCALE
  5
61
102
{ACAD_REACTORS
330
51
102
}
330
51
100
AcDbScale
 70
     0
300
10:1
140
10.0
141
1.0
290
     0
  0
SCALE
  5
62
102
{ACAD_REACTORS
330
51
102
}
330
51
100
AcDbScale
 70
     0
300
100:1
140
100.0
141
1.0
290
     0
  0
SCALE
  5
63
102
{ACAD_REACTORS
330
51
102
}
330
51
100
AcDbScale
 70
     0
300
1/128" = 1'-0"
140
0.0078125
141
12.0
290
     0
  0
SCALE
  5
64
102
{ACAD_REACTORS
330
51
102
}
330
51
100
AcDbScale
 70
     0
300
1/64" = 1'-0"
140
0.015625
141
12.0
290
     0
  0
SCALE
  5
65
102
{ACAD_REACTORS
330
51
102
}
330
51
100
AcDbScale
 70
     0
300
1/32" = 1'-0"
140
0.03125
141
12.0
290
     0
  0
SCALE
  5
66
102
{ACAD_REACTORS
330
51
102
}
330
51
100
AcDbScale
 70
     0
300
1/16" = 1'-0"
140
0.0625
141
12.0
290
     0
  0
SCALE
  5
67
102
{ACAD_REACTORS
330
51
102
}
330
51
100
AcDbScale
 70
     0
300
3/32" = 1'-0"
140
0.09375
141
12.0
290
     0
  0
SCALE
  5
68
102
{ACAD_REACTORS
330
51
102
}
330
51
100
AcDbScale
 70
     0
300
1/8" = 1'-0"
140
0.125
141
12.0
290
     0
  0
SCALE
  5
69
102
{ACAD_REACTORS
330
51
102
}
330
51
100
AcDbScale
 70
     0
300
3/16" = 1'-0"
140
0.1875
141
12.0
290
     0
  0
SCALE
  5
6A
102
{ACAD_REACTORS
330
51
102
}
330
51
100
AcDbScale
 70
     0
300
1/4" = 1'-0"
140
0.25
141
12.0
290
     0
  0
SCALE
  5
6B
102
{ACAD_REACTORS
330
51
102
}
330
51
100
AcDbScale
 70
     0
300
3/8" = 1'-0"
140
0.375
141
12.0
290
     0
  0
SCALE
  5
6C
102
{ACAD_REACTORS
330
51
102
}
330
51
100
AcDbScale
 70
     0
300
1/2" = 1'-0"
140
0.5
141
12.0
290
     0
  0
SCALE
  5
6D
102
{ACAD_REACTORS
330
51
102
}
330
51
100
AcDbScale
 70
     0
300
3/4" = 1'-0"
140
0.75
141
12.0
290
     0
  0
SCALE
  5
6E
102
{ACAD_REACTORS
330
51
102
}
330
51
100
AcDbScale
 70
     0
300
1" = 1'-0"
140
1.0
141
12.0
290
     0
  0
SCALE
  5
6F
102
{ACAD_REACTORS
330
51
102
}
330
51
100
AcDbScale
 70
     0
300
1-1/2" = 1'-0"
140
1.5
141
12.0
290
     0
  0
SCALE
  5
70
102
{ACAD_REACTORS
330
51
102
}
330
51
100
AcDbScale
 70
     0
300
3" = 1'-0"
140
3.0
141
12.0
290
     0
  0
SCALE
  5
71
102
{ACAD_REACTORS
330
51
102
}
330
51
100
AcDbScale
 70
     0
300
6" = 1'-0"
140
6.0
141
12.0
290
     0
  0
SCALE
  5
72
102
{ACAD_REACTORS
330
51
102
}
330
51
100
AcDbScale
 70
     0
300
1'-0" = 1'-0"
140
12.0
141
12.0
290
     0
  0
VISUALSTYLE
  5
2F
102
{ACAD_REACTORS
330
2A
102
}
102
{ACAD_XDICTIONARY
360
325
102
}
330
2A
100
AcDbVisualStyle
  2
2dWireframe
 70
     4
 71
     0
 72
     2
 73
     0
 90
        0
 40
-0.6
 41
-30.0
 62
     5
 63
     7
 74
     1
 91
        4
 64
     7
 65
   257
 75
     1
175
     1
 42
1.0
 92
        0
 66
   257
 43
1.0
 76
     1
 77
     6
 78
     2
 67
     7
 79
     5
170
     0
171
     0
290
     0
174
     0
 93
        1
 44
0.0
173
     0
291
     0
 45
0.0
1001
ACAD
1000
AcDbSavedByObjectVersion
1070
     0
  0
VISUALSTYLE
  5
31
102
{ACAD_REACTORS
330
2A
102
}
102
{ACAD_XDICTIONARY
360
329
102
}
330
2A
100
AcDbVisualStyle
  2
3D Hidden
 70
     6
 71
     1
 72
     2
 73
     2
 90
        0
 40
-0.6
 41
-30.0
 62
     5
 63
     7
 74
     2
 91
        2
 64
     7
 65
   257
 75
     2
175
     1
 42
40.0
 92
        0
 66
   257
 43
1.0
 76
     1
 77
     6
 78
     2
 67
     7
 79
     3
170
     0
171
     0
290
     0
174
     0
 93
        1
 44
0.0
173
     0
291
     0
 45
0.0
1001
ACAD
1000
AcDbSavedByObjectVersion
1070
     0
  0
VISUALSTYLE
  5
30
102
{ACAD_REACTORS
330
2A
102
}
102
{ACAD_XDICTIONARY
360
327
102
}
330
2A
100
AcDbVisualStyle
  2
3dWireframe
 70
     5
 71
     0
 72
     2
 73
     0
 90
        0
 40
-0.6
 41
-30.0
 62
     5
 63
     7
 74
     1
 91
        4
 64
     7
 65
   257
 75
     1
175
     1
 42
1.0
 92
        0
 66
   257
 43
1.0
 76
     1
 77
     6
 78
     2
 67
     7
 79
     5
170
     0
171
     0
290
     0
174
     0
 93
        1
 44
0.0
173
     0
291
     0
 45
0.0
1001
ACAD
1000
AcDbSavedByObjectVersion
1070
     0
  0
VISUALSTYLE
  5
32
102
{ACAD_REACTORS
330
2A
102
}
102
{ACAD_XDICTIONARY
360
32B
102
}
330
2A
100
AcDbVisualStyle
  2
Basic
 70
     7
 71
     1
 72
     0
 73
     1
 90
        0
 40
-0.6
 41
-30.0
 62
     5
 63
     7
 74
     0
 91
        4
 64
     7
 65
   257
 75
     1
175
     1
 42
1.0
 92
        8
 66
     7
 43
1.0
 76
     1
 77
     6
 78
     2
 67
     7
 79
     5
170
     0
171
     0
290
     0
174
     0
 93
        1
 44
0.0
173
     0
291
     1
 45
0.0
1001
ACAD
1000
AcDbSavedByObjectVersion
1070
     0
  0
VISUALSTYLE
  5
36
102
{ACAD_REACTORS
330
2A
102
}
102
{ACAD_XDICTIONARY
360
333
102
}
330
2A
100
AcDbVisualStyle
  2
Brighten
 70
    12
 71
     2
 72
     2
 73
     0
 90
        0
 40
-0.6
 41
-30.0
 62
     5
 63
     7
 74
     1
 91
        4
 64
     7
 65
   257
 75
     1
175
     1
 42
1.0
 92
        8
 66
     7
 43
1.0
 76
     1
 77
     6
 78
     2
 67
     7
 79
     5
170
     0
171
     0
290
     0
174
     0
 93
        1
 44
50.0
173
     0
291
     1
 45
0.0
1001
ACAD
1000
AcDbSavedByObjectVersion
1070
     0
  0
VISUALSTYLE
  5
3A
102
{ACAD_REACTORS
330
2A
102
}
102
{ACAD_XDICTIONARY
360
33B
102
}
330
2A
100
AcDbVisualStyle
  2
ColorChange
 70
    16
 71
     2
 72
     2
 73
     3
 90
        0
 40
-0.6
 41
-30.0
 62
     5
 63
     8
 74
     1
 91
        4
 64
     7
 65
   257
 75
     1
175
     1
 42
1.0
 92
        8
 66
     8
 43
1.0
 76
     1
 77
     6
 78
     2
 67
     7
 79
     5
170
     0
171
     0
290
     0
174
     0
 93
        1
 44
0.0
173
     0
291
     1
 45
0.0
1001
ACAD
1000
AcDbSavedByObjectVersion
1070
     0
  0
VISUALSTYLE
  5
34
102
{ACAD_REACTORS
330
2A
102
}
102
{ACAD_XDICTIONARY
360
32F
102
}
330
2A
100
AcDbVisualStyle
  2
Conceptual
 70
     9
 71
     3
 72
     2
 73
     0
 90
        0
 40
-0.6
 41
-30.0
 62
     5
 63
     7
 74
     2
 91
        2
 64
     7
 65
   257
 75
     1
175
     1
 42
40.0
 92
        8
 66
     7
 43
1.0
 76
     1
 77
     6
 78
     2
 67
     7
 79
     3
170
     0
171
     0
290
     0
174
     0
 93
        1
 44
0.0
173
     0
291
     0
 45
0.0
1001
ACAD
1000
AcDbSavedByObjectVersion
1070
     0
  0
VISUALSTYLE
  5
35
102
{ACAD_REACTORS
330
2A
102
}
102
{ACAD_XDICTIONARY
360
331
102
}
330
2A
100
AcDbVisualStyle
  2
Dim
 70
    11
 71
     2
 72
     2
 73
     0
 90
        0
 40
-0.6
 41
-30.0
 62
     5
 63
     7
 74
     1
 91
        4
 64
     7
 65
   257
 75
     1
175
     1
 42
1.0
 92
        8
 66
     7
 43
1.0
 76
     1
 77
     6
 78
     2
 67
     7
 79
     5
170
     0
171
     0
290
     0
174
     0
 93
        1
 44
-50.0
173
     0
291
     1
 45
0.0
1001
ACAD
1000
AcDbSavedByObjectVersion
1070
     0
  0
VISUALSTYLE
  5
39
102
{ACAD_REACTORS
330
2A
102
}
102
{ACAD_XDICTIONARY
360
339
102
}
330
2A
100
AcDbVisualStyle
  2
Facepattern
 70
    15
 71
     2
 72
     2
 73
     0
 90
        0
 40
-0.6
 41
-30.0
 62
     5
 63
     7
 74
     1
 91
        4
 64
     7
 65
   257
 75
     1
175
     1
 42
1.0
 92
        8
 66
     7
 43
1.0
 76
     1
 77
     6
 78
     2
 67
     7
 79
     5
170
     0
171
     0
290
     0
174
     0
 93
        1
 44
0.0
173
     0
291
     1
 45
0.0
1001
ACAD
1000
AcDbSavedByObjectVersion
1070
     0
  0
VISUALSTYLE
  5
2B
102
{ACAD_REACTORS
330
2A
102
}
102
{ACAD_XDICTIONARY
360
31D
102
}
330
2A
100
AcDbVisualStyle
  2
Flat
 70
     0
 71
     2
 72
     1
 73
     1
 90
        2
 40
-0.6
 41
30.0
 62
     5
 63
     7
 74
     0
 91
        4
 64
     7
 65
   257
 75
     1
175
     1
 42
1.0
 92
        8
 66
     7
 43
1.0
 76
     1
 77
     6
 78
     2
 67
     7
 79
     5
170
     0
171
     0
290
     0
174
     0
 93
       13
 44
0.0
173
     0
291
     1
 45
0.0
1001
ACAD
1000
AcDbSavedByObjectVersion
1070
     0
  0
VISUALSTYLE
  5
2C
102
{ACAD_REACTORS
330
2A
102
}
102
{ACAD_XDICTIONARY
360
31F
102
}
330
2A
100
AcDbVisualStyle
  2
FlatWithEdges
 70
     1
 71
     2
 72
     1
 73
     1
 90
        2
 40
-0.6
 41
30.0
 62
     5
 63
     7
 74
     1
 91
        4
 64
     7
 65
   257
 75
     1
175
     1
 42
1.0
 92
        0
 66
   257
 43
1.0
 76
     1
 77
     6
 78
     2
 67
     7
 79
     5
170
     0
171
     0
290
     0
174
     0
 93
       13
 44
0.0
173
     0
291
     1
 45
0.0
1001
ACAD
1000
AcDbSavedByObjectVersion
1070
     0
  0
VISUALSTYLE
  5
2D
102
{ACAD_REACTORS
330
2A
102
}
102
{ACAD_XDICTIONARY
360
321
102
}
330
2A
100
AcDbVisualStyle
  2
Gouraud
 70
     2
 71
     2
 72
     2
 73
     1
 90
        2
 40
-0.6
 41
30.0
 62
     5
 63
     7
 74
     0
 91
        4
 64
     7
 65
   257
 75
     1
175
     1
 42
1.0
 92
        0
 66
     7
 43
1.0
 76
     1
 77
     6
 78
     2
 67
     7
 79
     5
170
     0
171
     0
290
     0
174
     0
 93
       13
 44
0.0
173
     0
291
     1
 45
0.0
1001
ACAD
1000
AcDbSavedByObjectVersion
1070
     0
  0
VISUALSTYLE
  5
2E
102
{ACAD_REACTORS
330
2A
102
}
102
{ACAD_XDICTIONARY
360
323
102
}
330
2A
100
AcDbVisualStyle
  2
GouraudWithEdges
 70
     3
 71
     2
 72
     2
 73
     1
 90
        2
 40
-0.6
 41
30.0
 62
     5
 63
     7
 74
     1
 91
        4
 64
     7
 65
   257
 75
     1
175
     1
 42
1.0
 92
        0
 66
   257
 43
1.0
 76
     1
 77
     6
 78
     2
 67
     7
 79
     5
170
     0
171
     0
290
     0
174
     0
 93
       13
 44
0.0
173
     0
291
     1
 45
0.0
1001
ACAD
1000
AcDbSavedByObjectVersion
1070
     0
  0
VISUALSTYLE
  5
38
102
{ACAD_REACTORS
330
2A
102
}
102
{ACAD_XDICTIONARY
360
337
102
}
330
2A
100
AcDbVisualStyle
  2
Linepattern
 70
    14
 71
     2
 72
     2
 73
     0
 90
        0
 40
-0.6
 41
-30.0
 62
     5
 63
     7
 74
     1
 91
        4
 64
     7
 65
   257
 75
     7
175
     7
 42
1.0
 92
        8
 66
     7
 43
1.0
 76
     1
 77
     6
 78
     2
 67
     7
 79
     5
170
     0
171
     0
290
     0
174
     0
 93
        1
 44
0.0
173
     0
291
     1
 45
0.0
1001
ACAD
1000
AcDbSavedByObjectVersion
1070
     0
  0
VISUALSTYLE
  5
33
102
{ACAD_REACTORS
330
2A
102
}
102
{ACAD_XDICTIONARY
360
32D
102
}
330
2A
100
AcDbVisualStyle
  2
Realistic
 70
     8
 71
     2
 72
     2
 73
     0
 90
        0
 40
-0.6
 41
-30.0
 62
     5
 63
     7
 74
     1
 91
        0
 64
     7
 65
   257
 75
     1
175
     1
 42
1.0
 92
        8
 66
     8
 43
1.0
 76
     1
 77
     6
 78
     2
 67
     7
 79
     5
170
     0
171
     0
290
     0
174
     0
 93
       13
 44
0.0
173
     0
291
     0
 45
0.0
1001
ACAD
1000
AcDbSavedByObjectVersion
1070
     0
  0
VISUALSTYLE
  5
37
102
{ACAD_REACTORS
330
2A
102
}
102
{ACAD_XDICTIONARY
360
335
102
}
330
2A
100
AcDbVisualStyle
  2
Thicken
 70
    13
 71
     2
 72
     2
 73
     0
 90
        0
 40
-0.6
 41
-30.0
 62
     5
 63
     7
 74
     1
 91
        4
 64
     7
 65
   257
 75
     1
175
     1
 42
1.0
 92
       12
 66
     7
 43
1.0
 76
     1
 77
     6
 78
     2
 67
     7
 79
     5
170
     0
171
     0
290
     0
174
     0
 93
        1
 44
0.0
173
     0
291
     1
 45
0.0
1001
ACAD
1000
AcDbSavedByObjectVersion
1070
     0
  0
DICTIONARYVAR
  5
31A
102
{ACAD_REACTORS
330
317
102
}
330
317
100
DictionaryVariables
280
     0
  1
1:1
  0
DICTIONARYVAR
  5
31B
102
{ACAD_REACTORS
330
317
102
}
330
317
100
DictionaryVariables
280
     0
  1
2
  0
DICTIONARYVAR
  5
31C
102
{ACAD_REACTORS
330
317
102
}
330
317
100
DictionaryVariables
280
     0
  1
1
  0
DICTIONARY
  5
33F
330
3D
100
AcDbDictionary
280
     1
281
     1
  3
ACAD_XREC_ROUNDTRIP
360
340
  0
DICTIONARY
  5
33D
330
3C
100
AcDbDictionary
280
     1
281
     1
  3
ACAD_XREC_ROUNDTRIP
360
33E
  0
DICTIONARY
  5
341
330
3E
100
AcDbDictionary
280
     1
281
     1
  3
ACAD_XREC_ROUNDTRIP
360
342
  0
DICTIONARY
  5
325
330
2F
100
AcDbDictionary
280
     1
281
     1
  3
ACAD_XREC_ROUNDTRIP
360
326
  0
DICTIONARY
  5
329
330
31
100
AcDbDictionary
280
     1
281
     1
  3
ACAD_XREC_ROUNDTRIP
360
32A
  0
DICTIONARY
  5
327
330
30
100
AcDbDictionary
280
     1
281
     1
  3
ACAD_XREC_ROUNDTRIP
360
328
  0
DICTIONARY
  5
32B
330
32
100
AcDbDictionary
280
     1
281
     1
  3
ACAD_XREC_ROUNDTRIP
360
32C
  0
DICTIONARY
  5
333
330
36
100
AcDbDictionary
280
     1
281
     1
  3
ACAD_XREC_ROUNDTRIP
360
334
  0
DICTIONARY
  5
33B
330
3A
100
AcDbDictionary
280
     1
281
     1
  3
ACAD_XREC_ROUNDTRIP
360
33C
  0
DICTIONARY
  5
32F
330
34
100
AcDbDictionary
280
     1
281
     1
  3
ACAD_XREC_ROUNDTRIP
360
330
  0
DICTIONARY
  5
331
330
35
100
AcDbDictionary
280
     1
281
     1
  3
ACAD_XREC_ROUNDTRIP
360
332
  0
DICTIONARY
  5
339
330
39
100
AcDbDictionary
280
     1
281
     1
  3
ACAD_XREC_ROUNDTRIP
360
33A
  0
DICTIONARY
  5
31D
330
2B
100
AcDbDictionary
280
     1
281
     1
  3
ACAD_XREC_ROUNDTRIP
360
31E
  0
DICTIONARY
  5
31F
330
2C
100
AcDbDictionary
280
     1
281
     1
  3
ACAD_XREC_ROUNDTRIP
360
320
  0
DICTIONARY
  5
321
330
2D
100
AcDbDictionary
280
     1
281
     1
  3
ACAD_XREC_ROUNDTRIP
360
322
  0
DICTIONARY
  5
323
330
2E
100
AcDbDictionary
280
     1
281
     1
  3
ACAD_XREC_ROUNDTRIP
360
324
  0
DICTIONARY
  5
337
330
38
100
AcDbDictionary
280
     1
281
     1
  3
ACAD_XREC_ROUNDTRIP
360
338
  0
DICTIONARY
  5
32D
330
33
100
AcDbDictionary
280
     1
281
     1
  3
ACAD_XREC_ROUNDTRIP
360
32E
  0
DICTIONARY
  5
335
330
37
100
AcDbDictionary
280
     1
281
     1
  3
ACAD_XREC_ROUNDTRIP
360
336
  0
XRECORD
  5
340
102
{ACAD_REACTORS
330
33F
102
}
330
33F
100
AcDbXrecord
280
     1
102
MATERIAL
148
0.0
149
0.0
149
0.0
 93
        0
 94
      127
282
     0
 72
     1
 77
     1
171
     1
175
     1
179
     1
273
     0
  0
XRECORD
  5
33E
102
{ACAD_REACTORS
330
33D
102
}
330
33D
100
AcDbXrecord
280
     1
102
MATERIAL
148
0.0
149
0.0
149
0.0
 93
        0
 94
      127
282
     0
 72
     1
 77
     1
171
     1
175
     1
179
     1
273
     0
  0
XRECORD
  5
342
102
{ACAD_REACTORS
330
341
102
}
330
341
100
AcDbXrecord
280
     1
102
MATERIAL
148
0.0
149
0.0
149
0.0
 93
        0
 94
      127
282
     0
 72
     1
 77
     1
171
     1
175
     1
179
     1
273
     0
  0
XRECORD
  5
326
102
{ACAD_REACTORS
330
325
102
}
330
325
100
AcDbXrecord
280
     1
102
RTVSPropertyOp0
 70
     1
102
RTVSPropertyOp1
 70
     1
102
RTVSPropertyOp2
 70
     1
102
RTVSPropertyOp3
 70
     1
102
RTVSPropertyOp4
 70
     1
102
RTVSPropertyOp5
 70
     1
102
RTVSPropertyOp6
 70
     1
102
RTVSPropertyOp7
 70
     1
102
RTVSPropertyOp8
 70
     1
102
RTVSPropertyOp9
 70
     1
102
RTVSPropertyOp10
 70
     1
102
RTVSPropertyOp11
 70
     1
102
RTVSPropertyOp12
 70
     1
102
RTVSPropertyOp13
 70
     1
102
RTVSPropertyOp14
 70
     1
102
RTVSPropertyOp15
 70
     1
102
RTVSPropertyOp16
 70
     1
102
RTVSPropertyOp17
 70
     1
102
RTVSPropertyOp18
 70
     1
102
RTVSPropertyOp19
 70
     1
102
RTVSPropertyOp20
 70
     1
102
RTVSPropertyOp21
 70
     1
102
RTVSPropertyOp22
 70
     1
102
RTVSPropertyOp23
 70
     1
102
RTVSPropertyOp24
 70
     1
102
RTVSPropertyOp25
 70
     1
102
RTVSPropertyOp26
 70
     1
102
RTVSPropertyOp27
 70
     1
  0
XRECORD
  5
32A
102
{ACAD_REACTORS
330
329
102
}
330
329
100
AcDbXrecord
280
     1
102
RTVSPropertyOp0
 70
     1
102
RTVSPropertyOp1
 70
     1
102
RTVSPropertyOp2
 70
     1
102
RTVSPropertyOp3
 70
     1
102
RTVSPropertyOp4
 70
     1
102
RTVSPropertyOp5
 70
     1
102
RTVSPropertyOp6
 70
     1
102
RTVSPropertyOp7
 70
     1
102
RTVSPropertyOp8
 70
     1
102
RTVSPropertyOp9
 70
     1
102
RTVSPropertyOp10
 70
     1
102
RTVSPropertyOp11
 70
     1
102
RTVSPropertyOp12
 70
     1
102
RTVSPropertyOp13
 70
     1
102
RTVSPropertyOp14
 70
     1
102
RTVSPropertyOp15
 70
     1
102
RTVSPropertyOp16
 70
     1
102
RTVSPropertyOp17
 70
     1
102
RTVSPropertyOp18
 70
     1
102
RTVSPropertyOp19
 70
     1
102
RTVSPropertyOp20
 70
     1
102
RTVSPropertyOp21
 70
     1
102
RTVSPropertyOp22
 70
     1
102
RTVSPropertyOp23
 70
     1
102
RTVSPropertyOp24
 70
     1
102
RTVSPropertyOp25
 70
     1
102
RTVSPropertyOp26
 70
     1
102
RTVSPropertyOp27
 70
     1
  0
XRECORD
  5
328
102
{ACAD_REACTORS
330
327
102
}
330
327
100
AcDbXrecord
280
     1
102
RTVSPropertyOp0
 70
     1
102
RTVSPropertyOp1
 70
     1
102
RTVSPropertyOp2
 70
     1
102
RTVSPropertyOp3
 70
     1
102
RTVSPropertyOp4
 70
     1
102
RTVSPropertyOp5
 70
     1
102
RTVSPropertyOp6
 70
     1
102
RTVSPropertyOp7
 70
     1
102
RTVSPropertyOp8
 70
     1
102
RTVSPropertyOp9
 70
     1
102
RTVSPropertyOp10
 70
     1
102
RTVSPropertyOp11
 70
     1
102
RTVSPropertyOp12
 70
     1
102
RTVSPropertyOp13
 70
     1
102
RTVSPropertyOp14
 70
     1
102
RTVSPropertyOp15
 70
     1
102
RTVSPropertyOp16
 70
     1
102
RTVSPropertyOp17
 70
     1
102
RTVSPropertyOp18
 70
     1
102
RTVSPropertyOp19
 70
     1
102
RTVSPropertyOp20
 70
     1
102
RTVSPropertyOp21
 70
     1
102
RTVSPropertyOp22
 70
     1
102
RTVSPropertyOp23
 70
     1
102
RTVSPropertyOp24
 70
     1
102
RTVSPropertyOp25
 70
     1
102
RTVSPropertyOp26
 70
     1
102
RTVSPropertyOp27
 70
     1
  0
XRECORD
  5
32C
102
{ACAD_REACTORS
330
32B
102
}
330
32B
100
AcDbXrecord
280
     1
102
RTVSPropertyOp0
 70
     1
102
RTVSPropertyOp1
 70
     1
102
RTVSPropertyOp2
 70
     1
102
RTVSPropertyOp3
 70
     1
102
RTVSPropertyOp4
 70
     1
102
RTVSPropertyOp5
 70
     1
102
RTVSPropertyOp6
 70
     1
102
RTVSPropertyOp7
 70
     1
102
RTVSPropertyOp8
 70
     1
102
RTVSPropertyOp9
 70
     1
102
RTVSPropertyOp10
 70
     1
102
RTVSPropertyOp11
 70
     1
102
RTVSPropertyOp12
 70
     1
102
RTVSPropertyOp13
 70
     1
102
RTVSPropertyOp14
 70
     1
102
RTVSPropertyOp15
 70
     1
102
RTVSPropertyOp16
 70
     1
102
RTVSPropertyOp17
 70
     1
102
RTVSPropertyOp18
 70
     1
102
RTVSPropertyOp19
 70
     1
102
RTVSPropertyOp20
 70
     1
102
RTVSPropertyOp21
 70
     1
102
RTVSPropertyOp22
 70
     1
102
RTVSPropertyOp23
 70
     1
102
RTVSPropertyOp24
 70
     1
102
RTVSPropertyOp25
 70
     1
102
RTVSPropertyOp26
 70
     1
102
RTVSPropertyOp27
 70
     1
  0
XRECORD
  5
334
102
{ACAD_REACTORS
330
333
102
}
330
333
100
AcDbXrecord
280
     1
102
RTVSPropertyOp0
 70
     1
102
RTVSPropertyOp1
 70
     1
102
RTVSPropertyOp2
 70
     1
102
RTVSPropertyOp3
 70
     1
102
RTVSPropertyOp4
 70
     1
102
RTVSPropertyOp5
 70
     1
102
RTVSPropertyOp6
 70
     1
102
RTVSPropertyOp7
 70
     1
102
RTVSPropertyOp8
 70
     1
102
RTVSPropertyOp9
 70
     1
102
RTVSPropertyOp10
 70
     1
102
RTVSPropertyOp11
 70
     1
102
RTVSPropertyOp12
 70
     1
102
RTVSPropertyOp13
 70
     1
102
RTVSPropertyOp14
 70
     1
102
RTVSPropertyOp15
 70
     1
102
RTVSPropertyOp16
 70
     1
102
RTVSPropertyOp17
 70
     1
102
RTVSPropertyOp18
 70
     1
102
RTVSPropertyOp19
 70
     1
102
RTVSPropertyOp20
 70
     1
102
RTVSPropertyOp21
 70
     1
102
RTVSPropertyOp22
 70
     1
102
RTVSPropertyOp23
 70
     1
102
RTVSPropertyOp24
 70
     1
102
RTVSPropertyOp25
 70
     1
102
RTVSPropertyOp26
 70
     1
102
RTVSPropertyOp27
 70
     1
  0
XRECORD
  5
33C
102
{ACAD_REACTORS
330
33B
102
}
330
33B
100
AcDbXrecord
280
     1
102
RTVSPropertyOp0
 70
     1
102
RTVSPropertyOp1
 70
     1
102
RTVSPropertyOp2
 70
     1
102
RTVSPropertyOp3
 70
     1
102
RTVSPropertyOp4
 70
     1
102
RTVSPropertyOp5
 70
     1
102
RTVSPropertyOp6
 70
     1
102
RTVSPropertyOp7
 70
     1
102
RTVSPropertyOp8
 70
     1
102
RTVSPropertyOp9
 70
     1
102
RTVSPropertyOp10
 70
     1
102
RTVSPropertyOp11
 70
     1
102
RTVSPropertyOp12
 70
     1
102
RTVSPropertyOp13
 70
     1
102
RTVSPropertyOp14
 70
     1
102
RTVSPropertyOp15
 70
     1
102
RTVSPropertyOp16
 70
     1
102
RTVSPropertyOp17
 70
     1
102
RTVSPropertyOp18
 70
     1
102
RTVSPropertyOp19
 70
     1
102
RTVSPropertyOp20
 70
     1
102
RTVSPropertyOp21
 70
     1
102
RTVSPropertyOp22
 70
     1
102
RTVSPropertyOp23
 70
     1
102
RTVSPropertyOp24
 70
     1
102
RTVSPropertyOp25
 70
     1
102
RTVSPropertyOp26
 70
     1
102
RTVSPropertyOp27
 70
     1
  0
XRECORD
  5
330
102
{ACAD_REACTORS
330
32F
102
}
330
32F
100
AcDbXrecord
280
     1
102
RTVSPropertyOp0
 70
     1
102
RTVSPropertyOp1
 70
     1
102
RTVSPropertyOp2
 70
     1
102
RTVSPropertyOp3
 70
     1
102
RTVSPropertyOp4
 70
     1
102
RTVSPropertyOp5
 70
     1
102
RTVSPropertyOp6
 70
     1
102
RTVSPropertyOp7
 70
     1
102
RTVSPropertyOp8
 70
     1
102
RTVSPropertyOp9
 70
     1
102
RTVSPropertyOp10
 70
     1
102
RTVSPropertyOp11
 70
     1
102
RTVSPropertyOp12
 70
     1
102
RTVSPropertyOp13
 70
     1
102
RTVSPropertyOp14
 70
     1
102
RTVSPropertyOp15
 70
     1
102
RTVSPropertyOp16
 70
     1
102
RTVSPropertyOp17
 70
     1
102
RTVSPropertyOp18
 70
     1
102
RTVSPropertyOp19
 70
     1
102
RTVSPropertyOp20
 70
     1
102
RTVSPropertyOp21
 70
     1
102
RTVSPropertyOp22
 70
     1
102
RTVSPropertyOp23
 70
     1
102
RTVSPropertyOp24
 70
     1
102
RTVSPropertyOp25
 70
     1
102
RTVSPropertyOp26
 70
     1
102
RTVSPropertyOp27
 70
     1
  0
XRECORD
  5
332
102
{ACAD_REACTORS
330
331
102
}
330
331
100
AcDbXrecord
280
     1
102
RTVSPropertyOp0
 70
     1
102
RTVSPropertyOp1
 70
     1
102
RTVSPropertyOp2
 70
     1
102
RTVSPropertyOp3
 70
     1
102
RTVSPropertyOp4
 70
     1
102
RTVSPropertyOp5
 70
     1
102
RTVSPropertyOp6
 70
     1
102
RTVSPropertyOp7
 70
     1
102
RTVSPropertyOp8
 70
     1
102
RTVSPropertyOp9
 70
     1
102
RTVSPropertyOp10
 70
     1
102
RTVSPropertyOp11
 70
     1
102
RTVSPropertyOp12
 70
     1
102
RTVSPropertyOp13
 70
     1
102
RTVSPropertyOp14
 70
     1
102
RTVSPropertyOp15
 70
     1
102
RTVSPropertyOp16
 70
     1
102
RTVSPropertyOp17
 70
     1
102
RTVSPropertyOp18
 70
     1
102
RTVSPropertyOp19
 70
     1
102
RTVSPropertyOp20
 70
     1
102
RTVSPropertyOp21
 70
     1
102
RTVSPropertyOp22
 70
     1
102
RTVSPropertyOp23
 70
     1
102
RTVSPropertyOp24
 70
     1
102
RTVSPropertyOp25
 70
     1
102
RTVSPropertyOp26
 70
     1
102
RTVSPropertyOp27
 70
     1
  0
XRECORD
  5
33A
102
{ACAD_REACTORS
330
339
102
}
330
339
100
AcDbXrecord
280
     1
102
RTVSPropertyOp0
 70
     1
102
RTVSPropertyOp1
 70
     1
102
RTVSPropertyOp2
 70
     1
102
RTVSPropertyOp3
 70
     1
102
RTVSPropertyOp4
 70
     1
102
RTVSPropertyOp5
 70
     1
102
RTVSPropertyOp6
 70
     1
102
RTVSPropertyOp7
 70
     1
102
RTVSPropertyOp8
 70
     1
102
RTVSPropertyOp9
 70
     1
102
RTVSPropertyOp10
 70
     1
102
RTVSPropertyOp11
 70
     1
102
RTVSPropertyOp12
 70
     1
102
RTVSPropertyOp13
 70
     1
102
RTVSPropertyOp14
 70
     1
102
RTVSPropertyOp15
 70
     1
102
RTVSPropertyOp16
 70
     1
102
RTVSPropertyOp17
 70
     1
102
RTVSPropertyOp18
 70
     1
102
RTVSPropertyOp19
 70
     1
102
RTVSPropertyOp20
 70
     1
102
RTVSPropertyOp21
 70
     1
102
RTVSPropertyOp22
 70
     1
102
RTVSPropertyOp23
 70
     1
102
RTVSPropertyOp24
 70
     1
102
RTVSPropertyOp25
 70
     1
102
RTVSPropertyOp26
 70
     1
102
RTVSPropertyOp27
 70
     1
  0
XRECORD
  5
31E
102
{ACAD_REACTORS
330
31D
102
}
330
31D
100
AcDbXrecord
280
     1
102
RTVSPropertyOp0
 70
     1
102
RTVSPropertyOp1
 70
     1
102
RTVSPropertyOp2
 70
     1
102
RTVSPropertyOp3
 70
     1
102
RTVSPropertyOp4
 70
     1
102
RTVSPropertyOp5
 70
     1
102
RTVSPropertyOp6
 70
     1
102
RTVSPropertyOp7
 70
     1
102
RTVSPropertyOp8
 70
     1
102
RTVSPropertyOp9
 70
     1
102
RTVSPropertyOp10
 70
     1
102
RTVSPropertyOp11
 70
     1
102
RTVSPropertyOp12
 70
     1
102
RTVSPropertyOp13
 70
     1
102
RTVSPropertyOp14
 70
     1
102
RTVSPropertyOp15
 70
     1
102
RTVSPropertyOp16
 70
     1
102
RTVSPropertyOp17
 70
     1
102
RTVSPropertyOp18
 70
     1
102
RTVSPropertyOp19
 70
     1
102
RTVSPropertyOp20
 70
     1
102
RTVSPropertyOp21
 70
     1
102
RTVSPropertyOp22
 70
     1
102
RTVSPropertyOp23
 70
     1
102
RTVSPropertyOp24
 70
     1
102
RTVSPropertyOp25
 70
     1
102
RTVSPropertyOp26
 70
     1
102
RTVSPropertyOp27
 70
     1
  0
XRECORD
  5
320
102
{ACAD_REACTORS
330
31F
102
}
330
31F
100
AcDbXrecord
280
     1
102
RTVSPropertyOp0
 70
     1
102
RTVSPropertyOp1
 70
     1
102
RTVSPropertyOp2
 70
     1
102
RTVSPropertyOp3
 70
     1
102
RTVSPropertyOp4
 70
     1
102
RTVSPropertyOp5
 70
     1
102
RTVSPropertyOp6
 70
     1
102
RTVSPropertyOp7
 70
     1
102
RTVSPropertyOp8
 70
     1
102
RTVSPropertyOp9
 70
     1
102
RTVSPropertyOp10
 70
     1
102
RTVSPropertyOp11
 70
     1
102
RTVSPropertyOp12
 70
     1
102
RTVSPropertyOp13
 70
     1
102
RTVSPropertyOp14
 70
     1
102
RTVSPropertyOp15
 70
     1
102
RTVSPropertyOp16
 70
     1
102
RTVSPropertyOp17
 70
     1
102
RTVSPropertyOp18
 70
     1
102
RTVSPropertyOp19
 70
     1
102
RTVSPropertyOp20
 70
     1
102
RTVSPropertyOp21
 70
     1
102
RTVSPropertyOp22
 70
     1
102
RTVSPropertyOp23
 70
     1
102
RTVSPropertyOp24
 70
     1
102
RTVSPropertyOp25
 70
     1
102
RTVSPropertyOp26
 70
     1
102
RTVSPropertyOp27
 70
     1
  0
XRECORD
  5
322
102
{ACAD_REACTORS
330
321
102
}
330
321
100
AcDbXrecord
280
     1
102
RTVSPropertyOp0
 70
     1
102
RTVSPropertyOp1
 70
     1
102
RTVSPropertyOp2
 70
     1
102
RTVSPropertyOp3
 70
     1
102
RTVSPropertyOp4
 70
     1
102
RTVSPropertyOp5
 70
     1
102
RTVSPropertyOp6
 70
     1
102
RTVSPropertyOp7
 70
     1
102
RTVSPropertyOp8
 70
     1
102
RTVSPropertyOp9
 70
     1
102
RTVSPropertyOp10
 70
     1
102
RTVSPropertyOp11
 70
     1
102
RTVSPropertyOp12
 70
     1
102
RTVSPropertyOp13
 70
     1
102
RTVSPropertyOp14
 70
     1
102
RTVSPropertyOp15
 70
     1
102
RTVSPropertyOp16
 70
     1
102
RTVSPropertyOp17
 70
     1
102
RTVSPropertyOp18
 70
     1
102
RTVSPropertyOp19
 70
     1
102
RTVSPropertyOp20
 70
     1
102
RTVSPropertyOp21
 70
     1
102
RTVSPropertyOp22
 70
     1
102
RTVSPropertyOp23
 70
     1
102
RTVSPropertyOp24
 70
     1
102
RTVSPropertyOp25
 70
     1
102
RTVSPropertyOp26
 70
     1
102
RTVSPropertyOp27
 70
     1
  0
XRECORD
  5
324
102
{ACAD_REACTORS
330
323
102
}
330
323
100
AcDbXrecord
280
     1
102
RTVSPropertyOp0
 70
     1
102
RTVSPropertyOp1
 70
     1
102
RTVSPropertyOp2
 70
     1
102
RTVSPropertyOp3
 70
     1
102
RTVSPropertyOp4
 70
     1
102
RTVSPropertyOp5
 70
     1
102
RTVSPropertyOp6
 70
     1
102
RTVSPropertyOp7
 70
     1
102
RTVSPropertyOp8
 70
     1
102
RTVSPropertyOp9
 70
     1
102
RTVSPropertyOp10
 70
     1
102
RTVSPropertyOp11
 70
     1
102
RTVSPropertyOp12
 70
     1
102
RTVSPropertyOp13
 70
     1
102
RTVSPropertyOp14
 70
     1
102
RTVSPropertyOp15
 70
     1
102
RTVSPropertyOp16
 70
     1
102
RTVSPropertyOp17
 70
     1
102
RTVSPropertyOp18
 70
     1
102
RTVSPropertyOp19
 70
     1
102
RTVSPropertyOp20
 70
     1
102
RTVSPropertyOp21
 70
     1
102
RTVSPropertyOp22
 70
     1
102
RTVSPropertyOp23
 70
     1
102
RTVSPropertyOp24
 70
     1
102
RTVSPropertyOp25
 70
     1
102
RTVSPropertyOp26
 70
     1
102
RTVSPropertyOp27
 70
     1
  0
XRECORD
  5
338
102
{ACAD_REACTORS
330
337
102
}
330
337
100
AcDbXrecord
280
     1
102
RTVSPropertyOp0
 70
     1
102
RTVSPropertyOp1
 70
     1
102
RTVSPropertyOp2
 70
     1
102
RTVSPropertyOp3
 70
     1
102
RTVSPropertyOp4
 70
     1
102
RTVSPropertyOp5
 70
     1
102
RTVSPropertyOp6
 70
     1
102
RTVSPropertyOp7
 70
     1
102
RTVSPropertyOp8
 70
     1
102
RTVSPropertyOp9
 70
     1
102
RTVSPropertyOp10
 70
     1
102
RTVSPropertyOp11
 70
     1
102
RTVSPropertyOp12
 70
     1
102
RTVSPropertyOp13
 70
     1
102
RTVSPropertyOp14
 70
     1
102
RTVSPropertyOp15
 70
     1
102
RTVSPropertyOp16
 70
     1
102
RTVSPropertyOp17
 70
     1
102
RTVSPropertyOp18
 70
     1
102
RTVSPropertyOp19
 70
     1
102
RTVSPropertyOp20
 70
     1
102
RTVSPropertyOp21
 70
     1
102
RTVSPropertyOp22
 70
     1
102
RTVSPropertyOp23
 70
     1
102
RTVSPropertyOp24
 70
     1
102
RTVSPropertyOp25
 70
     1
102
RTVSPropertyOp26
 70
     1
102
RTVSPropertyOp27
 70
     1
  0
XRECORD
  5
32E
102
{ACAD_REACTORS
330
32D
102
}
330
32D
100
AcDbXrecord
280
     1
102
RTVSPropertyOp0
 70
     1
102
RTVSPropertyOp1
 70
     1
102
RTVSPropertyOp2
 70
     1
102
RTVSPropertyOp3
 70
     1
102
RTVSPropertyOp4
 70
     1
102
RTVSPropertyOp5
 70
     1
102
RTVSPropertyOp6
 70
     1
102
RTVSPropertyOp7
 70
     1
102
RTVSPropertyOp8
 70
     1
102
RTVSPropertyOp9
 70
     1
102
RTVSPropertyOp10
 70
     1
102
RTVSPropertyOp11
 70
     1
102
RTVSPropertyOp12
 70
     1
102
RTVSPropertyOp13
 70
     1
102
RTVSPropertyOp14
 70
     1
102
RTVSPropertyOp15
 70
     1
102
RTVSPropertyOp16
 70
     1
102
RTVSPropertyOp17
 70
     1
102
RTVSPropertyOp18
 70
     1
102
RTVSPropertyOp19
 70
     1
102
RTVSPropertyOp20
 70
     1
102
RTVSPropertyOp21
 70
     1
102
RTVSPropertyOp22
 70
     1
102
RTVSPropertyOp23
 70
     1
102
RTVSPropertyOp24
 70
     1
102
RTVSPropertyOp25
 70
     1
102
RTVSPropertyOp26
 70
     1
102
RTVSPropertyOp27
 70
     1
  0
XRECORD
  5
336
102
{ACAD_REACTORS
330
335
102
}
330
335
100
AcDbXrecord
280
     1
102
RTVSPropertyOp0
 70
     1
102
RTVSPropertyOp1
 70
     1
102
RTVSPropertyOp2
 70
     1
102
RTVSPropertyOp3
 70
     1
102
RTVSPropertyOp4
 70
     1
102
RTVSPropertyOp5
 70
     1
102
RTVSPropertyOp6
 70
     1
102
RTVSPropertyOp7
 70
     1
102
RTVSPropertyOp8
 70
     1
102
RTVSPropertyOp9
 70
     1
102
RTVSPropertyOp10
 70
     1
102
RTVSPropertyOp11
 70
     1
102
RTVSPropertyOp12
 70
     1
102
RTVSPropertyOp13
 70
     1
102
RTVSPropertyOp14
 70
     1
102
RTVSPropertyOp15
 70
     1
102
RTVSPropertyOp16
 70
     1
102
RTVSPropertyOp17
 70
     1
102
RTVSPropertyOp18
 70
     1
102
RTVSPropertyOp19
 70
     1
102
RTVSPropertyOp20
 70
     1
102
RTVSPropertyOp21
 70
     1
102
RTVSPropertyOp22
 70
     1
102
RTVSPropertyOp23
 70
     1
102
RTVSPropertyOp24
 70
     1
102
RTVSPropertyOp25
 70
     1
102
RTVSPropertyOp26
 70
     1
102
RTVSPropertyOp27
 70
     1
  0
ENDSEC
  0
EOF
